Правила форума

Здесь находятся раздачи, на которых не было полного источника (сида) более месяца.
Вы можете вернуть релиз в соответствующий раздел, для этого напишите нам в специальной теме и встаньте на раздачу.
Новые релизы, повторяющие релизы в архиве, повторами не считаются.
Начать новую темуОтветить на тему  [ Сообщений: 2 ] 
Сообщения
 Добавлено: 2012-04-28 18:59
Руководитель релиз-группы
Аватара пользователя
Стаж: 7 лет 5 месяцев
Возраст: 31
Сообщений: 3406
Спасибок: 46729
Лайков: 5
Изображение

Мы купили зоопарк
We Bought a Zoo


Год выпуска: 2011
Страна: США
Жанр: драма, комедия, семейный
Продолжительность: 02:03:54
Перевод: Профессиональный (полное дублирование)
Режиссер: Кэмерон Кроу
Сценарий: Алин Брош МакКенна, Кэмерон Кроу, Бенжамин Ми
Продюсер: Джули Силверман, Пол Дисон, Марк Гордон
Оператор: Родриго Прието
Композитор: Йоун Тоур Биргиссон
В ролях: Мэтт Дэймон, Скарлетт Йоханссон, Томас Хейден Чёрч, Колин Форд, Мэгги Джонс, Энгус МакФадьен, Эль Фаннинг, Патрик Фьюджит, Джон Майкл Хиггинс, Карла Галло
Сборы в мире: $110 060 759
Описание: Лента рассказывает о том, как британское семейство Ми потратило все сбережения, чтобы спасти заброшенный сельский зверинец с двумя сотнями экзотических животных, которым грозила гибель.
Изображение
MPAA: Изображение
Релиз: Изображение Раздача группы: Изображение
Качество: BDRip, 720p
Формат: Matroska
Видео: AVC; 1280x694 (16:9); 4433 Kbps; 23,976 fps; 0,208 bit/pixel
Аудио: AC3; 448 Kbps; CBR; 6 ch Russian
Субтитры: русские, украинские, английские
Изображение
mediainfo
Формат : Matroska
Версия формата : Version 2
Размер файла : 4,31 Гбайт
Продолжительность : 2 ч. 3 м.
Общий поток : 4981 Кбит/сек
Дата кодирования : UTC 2012-04-28 03:50:19
Программа кодирования : mkvmerge v5.4.0 ('Piper') built on Mar 10 2012 13:34:39
Библиотека кодирования : libebml v1.2.3 + libmatroska v1.3.0

Видео
Идентификатор : 1
Формат : AVC
Формат/Информация : Advanced Video Codec
Профиль формата : High@L4.1
Параметр CABAC формата : Да
Параметр ReFrames формата : 9 кадров
Идентификатор кодека : V_MPEG4/ISO/AVC
Продолжительность : 2 ч. 3 м.
Битрейт : 4539 Кбит/сек
Ширина : 1280 пикселей
Высота : 694 пикселя
Соотношение сторон : 16:9
Частота кадров : 23,976 кадра/сек
Цветовое пространство : YUV
Субдискретизация насыщенности : 4:2:0
Битовая глубина : 8 бит
Тип развёртки : Прогрессивная
Бит/(Пиксели*Кадры) : 0.213
Размер потока : 3,84 Гбайт (89%)
Заголовок : FREEISLAND
Библиотека кодирования : x264 core 122 r2184 5c85e0a
Настройки программы : cabac=1 / ref=9 / deblock=1:-3:-3 / analyse=0x3:0x113 / me=umh / subme=10 / psy=1 / psy_rd=1.10:0.15 / mixed_ref=1 / me_range=32 / chroma_me=1 / trellis=2 / 8x8dct=1 / cqm=0 / deadzone=21,11 / fast_pskip=0 / chroma_qp_offset=-3 / threads=6 / sliced_threads=0 / nr=0 / decimate=1 / interlaced=0 / bluray_compat=0 / constrained_intra=0 / bframes=8 / b_pyramid=2 / b_adapt=2 / b_bias=0 / direct=3 / weightb=1 / open_gop=0 / weightp=2 / keyint=240 / keyint_min=22 / scenecut=40 / intra_refresh=0 / rc=2pass / mbtree=0 / bitrate=4539 / ratetol=1.0 / qcomp=0.70 / qpmin=0 / qpmax=69 / qpstep=4 / cplxblur=20.0 / qblur=0.5 / ip_ratio=1.40 / pb_ratio=1.30 / aq=1:0.80
Язык : English
Основные цвета : BT.709-5, BT.1361, IEC 61966-2-4, SMPTE RP177
Характеристики трансфера : BT.709-5, BT.1361
Коэффициенты матрицы : BT.709-5, BT.1361, IEC 61966-2-4 709, SMPTE RP177

Аудио
Идентификатор : 2
Формат : AC-3
Формат/Информация : Audio Coding 3
Расширение режима : CM (complete main)
Идентификатор кодека : A_AC3
Продолжительность : 2 ч. 3 м.
Вид битрейта : Постоянный
Битрейт : 448 Кбит/сек
Каналы : 6 каналов
Расположение каналов : Front: L C R, Side: L R, LFE
Частота : 48,0 КГц
Битовая глубина : 16 бит
Метод сжатия : С потерями
Размер потока : 397 Мбайт (9%)
Язык : Russian

Текст #1
Идентификатор : 3
Формат : UTF-8
Идентификатор кодека : S_TEXT/UTF8
Идентификатор кодека/Информация : UTF-8 Plain Text
Язык : Russian

Текст #2
Идентификатор : 4
Формат : UTF-8
Идентификатор кодека : S_TEXT/UTF8
Идентификатор кодека/Информация : UTF-8 Plain Text
Язык : Ukrainian

Текст #3
Идентификатор : 5
Формат : UTF-8
Идентификатор кодека : S_TEXT/UTF8
Идентификатор кодека/Информация : UTF-8 Plain Text
Язык : English

Меню
00:00:00.000 : en:Chapter 01
00:04:35.149 : en:Chapter 02
00:08:08.237 : en:Chapter 04
00:11:03.496 : en:Chapter 06
00:14:33.873 : en:Chapter 08
00:16:50.509 : en:Chapter 10
00:21:23.699 : en:Chapter 12
00:24:29.050 : en:Chapter 14
00:26:37.429 : en:Chapter 16
00:30:45.260 : en:Chapter 18
00:35:46.893 : en:Chapter 20
00:40:48.696 : en:Chapter 22
00:44:19.948 : en:Chapter 24
00:47:20.087 : en:Chapter 26
00:50:14.302 : en:Chapter 28
00:56:31.888 : en:Chapter 30
01:00:10.189 : en:Chapter 32
01:03:01.986 : en:Chapter 34
01:07:29.670 : en:Chapter 36
01:11:31.287 : en:Chapter 38
01:15:40.410 : en:Chapter 40
01:19:30.307 : en:Chapter 42
01:24:01.578 : en:Chapter 44
01:26:47.911 : en:Chapter 46
01:30:31.426 : en:Chapter 48
01:34:01.177 : en:Chapter 50
01:37:34.305 : en:Chapter 52
01:44:03.028 : en:Chapter 54
01:48:26.249 : en:Chapter 56
01:52:46.384 : en:Chapter 58
01:55:57.700 : en:Chapter 60
01:58:56.003 : en:Chapter 62
02:03:54.218 : en:Chapter 63

Свернуть
"Знаете ли Вы, что..."
  • Основой для фильма послужили опубликованные в феврале 2009 года мемуары Бенджамина Ми под названием «We Bought a Zoo: The Amazing True Story of a Broken-Down Zoo, and the 200 Animals That Changed a Family Forever» («Мы купили зоопарк: Потрясающая подлинная история разбитого зоопарка и 200 животных, которые изменили семью навсегда»). Права на экранизацию его книги были практически сразу же куплены студией 20th Century Fox.
  • В августе 2006 года Бенджамин Ми со своей семьей приобрёл за 1,1 млн британских фунтов на тот момент закрытый Дартмурский зоопарк, который расположен в окрестностях деревушки Спарквелл, графство Девоншир, юго-западная Англия. После серьёзной реорганизации и перестройки зоопарк был снова открыт для публики 7 июля 2007 года.
  • По согласованию с самим Бенджамином Ми место нахождения зоопарка было перенесено из Англии в Калифорнию. Это было сделано ради большего успеха фильма у американской публики. Структура зоопарка и расположение основных секций в фильме были сохранены.
  • В реальной истории дети Бенджамина Ми были значительно младше, чем в фильме. На момент покупки зоопарка брату и сестре было соответственно 6 и 4 года.
  • В фильме в камео появляется вся семья Ми – отец Бенджамин и дети Майло и Элла. Это первая семья в очереди посетителей, когда герой Мэтта Дэймона перелезает через дерево. Среди публики в зоопарке также можно заметить детей режиссера Кэмерона Кроу, одиннадцатилетних на тот момент близнецов Уильяма Джеймса и Кёртиса Уилсона.
  • Обезьянка капуцин Кристал уже имела большой опыт «работы» в кино. Перед этим она «снималась» в таких фильмах как «Ночь в музее» (2006), «Мальчишник 2: Из Вегаса в Бангкок» (2011) и «Мой парень из зоопарка» (2011).
  • Помимо Скарлетт Йоханссон другими кандидатурами на роль Келли Фостер были Эми Адамс, Мэри Элизабет Уинстэд и Рэйчел МакАдамс.
Свернуть
Скриншоты

Изображение
Изображение
Изображение
Изображение
Изображение
Свернуть
Не в сети
Профиль  
 Добавлено: 2012-05-19 12:20 (спустя 20 дней)
Аватара пользователя
Стаж: 7 лет 6 месяцев
Возраст: 51
Сообщений: 1782
Лайков: 1403
Такая вот странная вещь - о фильмах спорных пишешь пространные рецензии, доказываешь себе и окружающим, что хорошо и что плохо, и в конце конце концов рекомендуешь к просмотру, хотя бы один раз. Мол, посмотрите сами и вынесете свое мнение.

А о фильме "Мы купили зоопарк" писать даже нечего. Настолько все ясно, мощно и убедительно. Слезогонка. Охренительная игра Дэймона, Йохансон и всех, кто в этой фильме играл. Сюжет - без дыр. Сказка без провисов. Смотрится на одном дыхании, а после окончания кино хочется еще.

В общем - кино суперское. 10 из 10. Смотреть обязательно. Отличное настроение гарантировано.

Конечно, я положил его в копилку.
Не в сети
Профиль  
Начать новую темуОтветить на тему  [ Сообщений: 2 ] 
Вы не можете начинать темы
Вы не можете отвечать на сообщения
Вы не можете редактировать свои сообщения
Вы не можете удалять свои сообщения