Правила форума

Здесь находятся раздачи, на которых не было полного источника (сида) более месяца.
Вы можете вернуть релиз в соответствующий раздел, для этого напишите нам в специальной теме и встаньте на раздачу.
Новые релизы, повторяющие релизы в архиве, повторами не считаются.
Начать новую темуОтветить на тему  [ Сообщений: 4 ] 
Сообщения
 Добавлено: 2014-07-02 18:42
DVD Release Group
Аватара пользователя
Стаж: 7 лет 1 месяц
Сообщений: 3564
Спасибок: 247503
Лайков: 1020
Миллион способов потерять голову

A Million Ways to Die in the West


Изображение


Год выпуска: 2014
Страна: США
Жанр: Комедия, вестерн
Продолжительность: 01:55:54
Перевод: Профессиональный (полное дублирование) чистый звук
Режиссер: Сет МакФарлейн
В ролях: Сет МакФарлейн, Шарлиз Терон, Аманда Сайфред, Лиам Нисон, Джованни Рибизи, Нил Патрик Харрис, Сара Силверман, Кристофер Хэйген, Уэс Стьюди, Мэтт Кларк
Описание: Угораздило же влюбиться не в том месте и не в то время. Здесь хамят в ресторанах, о горячей воде слагают легенды, да и с транспортом полный коллапс. Но у таинственной незнакомки отменная фигура, да и стреляет она без промаха. Кто же по своей воле откажется от такой красотки?
Изображение
Качество: BDRip 720p
Формат: MKV
Видео кодек: H.264
Аудио кодек: AC3
Видео: 1280x536 23.98fps 5235kbps
Аудио:
Audio Rus: 48kHz 2ch 256kbps
Audio Eng: 48kHz 6ch 448kbps
"MediaInfo"
Формат : Matroska
Версия формата : Version 4 / Version 2
Размер файла : 4,81 Гбайт
Продолжительность : 1 ч. 55 м.
Общий поток : 5939 Кбит/сек
Дата кодирования : UTC 2014-09-03 17:56:23
Программа кодирования : mkvmerge v6.1.0 ('Old Devil') built on Mar 4 2013 09:10:42
Библиотека кодирования : libebml v1.3.0 + libmatroska v1.4.0

Видео
Идентификатор : 1
Формат : AVC
Формат/Информация : Advanced Video Codec
Профиль формата : High@L4.1
Параметр CABAC формата : Да
Параметр ReFrames формата : 5 кадров
Идентификатор кодека : V_MPEG4/ISO/AVC
Продолжительность : 1 ч. 55 м.
Битрейт : 5235 Кбит/сек
Ширина : 1280 пикселей
Высота : 536 пикселей
Соотношение сторон : 2,40:1
Режим частоты кадров : Постоянный
Частота кадров : 23,976 кадра/сек
Цветовое пространство : YUV
Субдискретизация насыщенности : 4:2:0
Битовая глубина : 8 бит
Тип развёртки : Прогрессивная
Бит/(Пиксели*Кадры) : 0.318
Размер потока : 4,14 Гбайт (86%)
Библиотека кодирования : x264 core 142 r2453 ea0ca51
Настройки программы : cabac=1 / ref=5 / deblock=1:0:0 / analyse=0x3:0x133 / me=umh / subme=7 / psy=1 / psy_rd=1.00:0.00 / mixed_ref=1 / me_range=16 / chroma_me=1 / trellis=1 / 8x8dct=1 / cqm=0 / deadzone=21,11 / fast_pskip=0 / chroma_qp_offset=-2 / threads=12 / lookahead_threads=2 / sliced_threads=0 / nr=0 / decimate=1 / interlaced=0 / bluray_compat=0 / constrained_intra=0 / bframes=3 / b_pyramid=2 / b_adapt=1 / b_bias=0 / direct=1 / weightb=1 / open_gop=0 / weightp=2 / keyint=250 / keyint_min=23 / scenecut=40 / intra_refresh=0 / rc_lookahead=40 / rc=2pass / mbtree=1 / bitrate=5235 / ratetol=1.0 / qcomp=0.60 / qpmin=0 / qpmax=69 / qpstep=4 / cplxblur=20.0 / qblur=0.5 / ip_ratio=1.40 / aq=1:1.00
Язык : English
Default : Да
Forced : Нет

Аудио #1
Идентификатор : 2
Формат : AC-3
Формат/Информация : Audio Coding 3
Расширение режима : CM (complete main)
Параметр Endianness формата : Big
Идентификатор кодека : A_AC3
Продолжительность : 1 ч. 55 м.
Вид битрейта : Постоянный
Битрейт : 256 Кбит/сек
Каналы : 2 канала
Расположение каналов : Front: L R
Частота : 48,0 КГц
Битовая глубина : 16 бит
Метод сжатия : С потерями
Размер потока : 212 Мбайт (4%)
Язык : Russian
Default : Да
Forced : Нет

Аудио #2
Идентификатор : 3
Формат : AC-3
Формат/Информация : Audio Coding 3
Расширение режима : CM (complete main)
Параметр Endianness формата : Big
Идентификатор кодека : A_AC3
Продолжительность : 1 ч. 55 м.
Вид битрейта : Постоянный
Битрейт : 448 Кбит/сек
Каналы : 6 каналов
Расположение каналов : Front: L C R, Side: L R, LFE
Частота : 48,0 КГц
Битовая глубина : 16 бит
Метод сжатия : С потерями
Размер потока : 371 Мбайт (8%)
Язык : English
Default : Нет
Forced : Нет

Меню
00:00:00.000 : en:00:00:00.000
00:03:02.140 : en:00:03:02.140
00:08:25.797 : en:00:08:25.797
00:12:26.996 : en:00:12:26.996
00:18:24.895 : en:00:18:24.895
00:23:06.176 : en:00:23:06.176
00:28:13.442 : en:00:28:13.442
00:35:10.442 : en:00:35:10.442
00:39:33.705 : en:00:39:33.705
00:44:59.822 : en:00:44:59.822
00:50:14.470 : en:00:50:14.470
00:58:14.533 : en:00:58:14.533
01:05:44.941 : en:01:05:44.941
01:13:28.070 : en:01:13:28.070
01:17:55.129 : en:01:17:55.129
01:23:44.561 : en:01:23:44.561
01:27:24.656 : en:01:27:24.656
01:35:27.889 : en:01:35:27.889
01:42:52.374 : en:01:42:52.374
01:49:42.951 : en:01:49:42.951
Свернуть

"Скриншоты"
Изображение
Изображение
Изображение
Изображение
Свернуть


Последний раз редактировалось rastor 2014-09-04 11:14, всего редактировалось 1 раз.
В сети
Профиль  
 Добавлено: 2014-07-03 12:36 (спустя 17 часов)
Аватара пользователя
Стаж: 6 лет 9 месяцев
Сообщений: 39
как фильмец кто смотрел ? не фанат двух голосых переводов, но если фильм реально хороший то качну!
Не в сети
Профиль  
 Добавлено: 2014-09-04 11:15 (спустя 2 месяца)
DVD Release Group
Аватара пользователя
Стаж: 7 лет 1 месяц
Сообщений: 3564
Спасибок: 247503
Лайков: 1020
Торрент-файл обновлен BDRip 720p (дубляж).
В сети
Профиль  
 Добавлено: 2014-09-04 20:25 (спустя 9 часов)
Стаж: 7 лет 3 месяца
Сообщений: 142
Лайков: 19
Фильм прикольный :)
Не в сети
Профиль  
Начать новую темуОтветить на тему  [ Сообщений: 4 ] 
Вы не можете начинать темы
Вы не можете отвечать на сообщения
Вы не можете редактировать свои сообщения
Вы не можете удалять свои сообщения