Правила форума

Здесь находятся раздачи, на которых не было полного источника (сида) более месяца.
Вы можете вернуть релиз в соответствующий раздел, для этого напишите нам в специальной теме и встаньте на раздачу.
Новые релизы, повторяющие релизы в архиве, повторами не считаются.
Начать новую темуОтветить на тему  [ 1 сообщение ] 
Сообщения
 Добавлено: 2011-09-01 21:14
Модератор релиз-группы
Аватара пользователя
Стаж: 9 лет 1 месяц
Возраст: 97
Сообщений: 11659
Спасибок: 6532
Лайков: 269
Модная мамочка / Raising Helen

Изображение


Год выпуска: 2004
Страна: сша
Жанр: драма, мелодрама, комедия
Продолжительность: 01:53:59
Перевод: Профессиональный (дубляж) R5
Oригинальная звуковая дорожка
Субтитры: Русские

Режиссёр: Гэрри Маршалл
В ролях: Кейт Хадсон, Джон Корбетт, Джоан Кьюсак, Хайден Панеттьери, Спенсер Бреслин, Эбигейл Бреслин, Хелен Миррен, Сакина Джэффри, Кевин Килнер, Фелисити Хаффмен
Описание: После гибели сестры на Хелен ложится забота о трех племянниках: тинэйджере Одри, десятилетнем Генри и совсем маленькой Саре. Быть помощницей директора модельного агентства нелегко, а заботиться о «свалившихся с неба» родственниках еще труднее. Осложняет все дело внезапный бурный роман с местным пастором Дэном...


Качество: HDTV
Формат: mkv
Видео кодек: MPEG-4(AVC)
Аудио кодек: AC3 (Dolby Digital)
Видео: 1920x1080i at 50.000 fps, MPEG-4 AVC, ~7857 Kbps avg
Аудио #1: Russian: 48 kHz, AC3, 3/2 (L,C,R,l,r) + LFE ch, ~384.00 kbps avg [Профессиональный (дубляж) R5]
Аудио #2: English: 48 kHz, AC3, 3/2 (L,C,R,l,r) + LFE ch, ~448.00 kbps avg [Оригинальная звуковая дорожка]
Субтитры: Русские
Скриншоты
Изображение
Изображение
Изображение
Изображение
Свернуть

Mi
Format : Matroska
Format version : Version 2
File size : 6.74 GiB
Duration : 1h 53mn
Overall bit rate : 8 468 Kbps
Encoded date : UTC 2011-09-01 18:03:47
Writing application : mkvmerge v4.9.1 ('Ich will') сборка от Jul 11 2011 23:53:15
Writing library : libebml v1.2.1 + libmatroska v1.1.1

Video
ID : 1
Format : AVC
Format/Info : Advanced Video Codec
Format profile : High@L4.0
Format settings, CABAC : Yes
Format settings, ReFrames : 4 frames
Format settings, GOP : M=1, N=56
Codec ID : V_MPEG4/ISO/AVC
Duration : 1h 53mn
Bit rate mode : Variable
Bit rate : 7 468 Kbps
Maximum bit rate : 40.0 Mbps
Width : 1 920 pixels
Height : 1 080 pixels
Display aspect ratio : 16:9
Frame rate : 50.000 fps
Original frame rate : 25.000 fps
Standard : Component
Color space : YUV
Chroma subsampling : 4:2:0
Bit depth : 8 bits
Scan type : Interlaced
Scan order : Top Field First
Bits/(Pixel*Frame) : 0.072
Stream size : 5.95 GiB (88%)
Color primaries : BT.709-5, BT.1361, IEC 61966-2-4, SMPTE RP177
Transfer characteristics : BT.709-5, BT.1361
Matrix coefficients : BT.709-5, BT.1361, IEC 61966-2-4 709, SMPTE RP177

Audio #1
ID : 2
Format : AC-3
Format/Info : Audio Coding 3
Mode extension : CM (complete main)
Codec ID : A_AC3
Duration : 1h 53mn
Bit rate mode : Constant
Bit rate : 384 Kbps
Channel(s) : 6 channels
Channel positions : Front: L C R, Side: L R, LFE
Sampling rate : 48.0 KHz
Bit depth : 16 bits
Compression mode : Lossy
Stream size : 313 MiB (5%)

Audio #2
ID : 3
Format : AC-3
Format/Info : Audio Coding 3
Mode extension : CM (complete main)
Codec ID : A_AC3
Duration : 1h 53mn
Bit rate mode : Constant
Bit rate : 448 Kbps
Channel(s) : 6 channels
Channel positions : Front: L C R, Side: L R, LFE
Sampling rate : 48.0 KHz
Bit depth : 16 bits
Compression mode : Lossy
Stream size : 365 MiB (5%)

Text
ID : 4
Format : PGS
Muxing mode : zlib
Codec ID : S_HDMV/PGS
Codec ID/Info : The same subtitle format used on BDs/HD-DVDs

Свернуть
Не в сети
Профиль  
Начать новую темуОтветить на тему  [ 1 сообщение ] 
Вы не можете начинать темы
Вы не можете отвечать на сообщения
Вы не можете редактировать свои сообщения
Вы не можете удалять свои сообщения