Правила форума

Здесь находятся раздачи, на которых не было полного источника (сида) более месяца.
Вы можете вернуть релиз в соответствующий раздел, для этого напишите нам в специальной теме и встаньте на раздачу.
Новые релизы, повторяющие релизы в архиве, повторами не считаются.
Начать новую темуОтветить на тему  [ Сообщений: 9 ] 
Сообщения
 Добавлено: 2012-08-09 16:55
Top-releaser
Аватара пользователя
Стаж: 8 лет 9 месяцев
Сообщений: 479
Спасибок: 20187
Лайков: 16
Изображение

Изображение

Battleship


«Битва за Землю начнётся на воде»

Год выпуска: 2012
Страна: Изображение США; Battleship Delta Productions, Bluegrass Films, Film 44, Hasbro, Ponysound
Жанр: Фантастика, боевик, триллер, приключения, военный
Продолжительность: 02:11:15
Перевод: Профессиональный (дублированный), Любительский одноголосый (Zamez), Оригинал
Субтитры: Russian, English [Full, SDH], Romanian

Режиссёр: Питер Берг / Peter Berg

В ролях: Тейлор Китч, Александр Скарсгард, Рианна, Бруклин Декер, Таданобу Асано, Лиам Нисон, Джон Туи, Грегори Д. Гэдсон, Джесси Племонс, Хамиш Линклэйтер, Питер МакНикол, Джерри Феррара, Адам Годли, Рико МакКлинтон, Дзездзи Йошида, Луис Ломбарди, Стефен Бишоп, Данте Хименез, Остин Нолти, Джеймс Роулингс, Эндрю Серпас, Карсон Он, Даг Пенти, Джошуа Пенс, Питер Берг, Ллойд Питтс

Описание: Мы посылаем сигналы в космос и ждем ответа. Но уверены ли мы, что хотим его получить? Что если пришельцы потенциально опасны? В 2009 году на конференции в Вашингтоне астронавт Эдгар Митчелл, побывавший на Луне, сделал сенсационное заявление о существовании внеземной жизни. Теперь мы знаем, контакт не просто возможен, он неизбежен!


Качество: BDRip 1080p
Формат: MKV

Видео: MPEG-4 AVC, 13.6 Мбит/с, 1920x800, 23.976 кадр/с

Аудио 1: Dolby AC3 48000Hz 6ch 384 kbps [Дубляж]
Аудио 2: DTS at 1510 Кбит/сек, 6 канала(ов), 48,0 КГц [Zamez]
Аудио 3: DTS at 1510 Кбит/сек, 6 канала(ов), 48,0 КГц [Оригинал]
Раздача: Изображение


Изображение
MediaInfo

Общее
Уникальный идентификатор : 252812043036787858426269853676331086103 (0xBE31D411EEB09359B1127B852AB43117)
Полное имя : C:\Users\Домашний\Desktop\Morskoj.boj.2012.x264.BDRip.(1080p).nntt.org.mkv
Формат : Matroska
Размер файла : 15,6 Гбайт
Продолжительность : 2 ч. 11 м.
Общий поток : 17,0 Мбит/сек
Название фильма : --SCHUMAHER--
Дата кодирования : UTC 2012-08-09 09:35:50
Программа кодирования : mkvmerge v5.7.0 ('The Whirlwind') built on Jul 8 2012 20:08:51
Библиотека кодирования : libebml v1.2.3 + libmatroska v1.3.0

Видео
Идентификатор : 1
Формат : AVC
Формат/Информация : Advanced Video Codec
Профиль формата : High@L4.1
Параметр CABAC формата : Да
Параметр ReFrames формата : 5 кадры
Идентификатор кодека : V_MPEG4/ISO/AVC
Продолжительность : 2 ч. 11 м.
Битрейт : 13,6 Мбит/сек
Ширина : 1920 пикс.
Высота : 800 пикс.
Соотношение сторон : 2,40:1
Частота кадров : 23,976 кадр/сек
Цветовое пространство : YUV
Подвыборка цветности : 4:2:0
Битовая глубина : 8 бит
Тип развёртки : Прогрессивная
Бит/(Пиксели*Кадры) : 0.369
Размер потока : 12,2 Гбайт (78%)
Библиотека кодирования : x264 core 125 r2208 d9d2288
Настройки программы : cabac=1 / ref=5 / deblock=1:-3:-3 / analyse=0x3:0x113 / me=umh / subme=11 / psy=1 / psy_rd=1.10:0.02 / mixed_ref=1 / me_range=48 / chroma_me=1 / trellis=2 / 8x8dct=1 / cqm=0 / deadzone=21,11 / fast_pskip=0 / chroma_qp_offset=-3 / threads=18 / lookahead_threads=3 / sliced_threads=0 / nr=0 / decimate=0 / interlaced=0 / bluray_compat=0 / constrained_intra=0 / bframes=7 / b_pyramid=2 / b_adapt=2 / b_bias=0 / direct=3 / weightb=1 / open_gop=0 / weightp=2 / keyint=240 / keyint_min=24 / scenecut=40 / intra_refresh=0 / rc_lookahead=240 / rc=2pass / mbtree=1 / bitrate=13600 / ratetol=1.0 / qcomp=0.70 / qpmin=0 / qpmax=69 / qpstep=4 / cplxblur=20.0 / qblur=0.5 / ip_ratio=1.20 / aq=1:1.00
Язык : English

Аудио #1
Идентификатор : 2
Формат : AC-3
Формат/Информация : Audio Coding 3
Расширение режима : CM (complete main)
Идентификатор кодека : A_AC3
Продолжительность : 2 ч. 11 м.
Вид битрейта : Постоянный
Битрейт : 384 Кбит/сек
Канал(ы) : 6 канала(ов)
Расположение каналов : Front: L C R, Side: L R, LFE
Частота : 48,0 КГц
Битовая глубина : 16 бит
Метод сжатия : С потерями
Размер потока : 360 Мбайт (2%)
Язык : Russian

Аудио #2
Идентификатор : 3
Формат : DTS
Формат/Информация : Digital Theater Systems
Идентификатор кодека : A_DTS
Продолжительность : 2 ч. 11 м.
Вид битрейта : Постоянный
Битрейт : 1510 Кбит/сек
Канал(ы) : 6 канала(ов)
Расположение каналов : Front: L C R, Side: L R, LFE
Частота : 48,0 КГц
Битовая глубина : 24 бит
Метод сжатия : С потерями
Размер потока : 1,38 Гбайт (9%)
Заголовок : zamez
Язык : Russian

Аудио #3
Идентификатор : 4
Формат : DTS
Формат/Информация : Digital Theater Systems
Идентификатор кодека : A_DTS
Продолжительность : 2 ч. 11 м.
Вид битрейта : Постоянный
Битрейт : 1510 Кбит/сек
Канал(ы) : 6 канала(ов)
Расположение каналов : Front: L C R, Side: L R, LFE
Частота : 48,0 КГц
Битовая глубина : 24 бит
Метод сжатия : С потерями
Размер потока : 1,38 Гбайт (9%)
Язык : English

Текст #1
Идентификатор : 5
Формат : UTF-8
Идентификатор кодека : S_TEXT/UTF8
Идентификатор кодека/Информация : UTF-8 Plain Text
Заголовок : Forced
Язык : Russian

Текст #2
Идентификатор : 6
Формат : UTF-8
Идентификатор кодека : S_TEXT/UTF8
Идентификатор кодека/Информация : UTF-8 Plain Text
Заголовок : Full
Язык : Russian

Текст #3
Идентификатор : 7
Формат : UTF-8
Идентификатор кодека : S_TEXT/UTF8
Идентификатор кодека/Информация : UTF-8 Plain Text
Язык : English

Меню
00:00:00.000 : en:00:00:00.000
00:09:24.105 : en:00:09:24.105
00:15:04.320 : en:00:15:04.320
00:23:08.679 : en:00:23:08.679
00:29:44.032 : en:00:29:44.032
00:36:26.810 : en:00:36:26.810
00:42:01.269 : en:00:42:01.269
00:49:09.655 : en:00:49:09.655
00:56:08.323 : en:00:56:08.323
01:00:02.224 : en:01:00:02.224
01:09:50.520 : en:01:09:50.520
01:15:26.731 : en:01:15:26.731
01:20:56.935 : en:01:20:56.935
01:29:47.424 : en:01:29:47.424
01:37:14.412 : en:01:37:14.412
01:43:32.248 : en:01:43:32.248
01:49:38.572 : en:01:49:38.572
01:56:20.682 : en:01:56:20.682
02:00:41.359 : en:02:00:41.359
02:09:33.975 : en:02:09:33.975



Свернуть
Скриншоты

Изображение
Изображение
Изображение
Изображение
Изображение
Свернуть
_________________
Изображение
Изображение
Не в сети
Профиль  
 Добавлено: 2012-08-11 19:38 (спустя 2 дня 2 часа)
Аватара пользователя
Стаж: 9 лет
Сообщений: 167
Спасибок: 38
ну в полном качестве видео выложте

Добавлено спустя 4 минуты:
выложте 1920x1080
Не в сети
Профиль  
 Добавлено: 2012-08-11 21:13 (спустя 1 час 35 минут)
Модератор релиз-группы
Аватара пользователя
Стаж: 9 лет 1 месяц
Возраст: 97
Сообщений: 11659
Спасибок: 6531
Лайков: 269

dilmah:

выложте 1920x1080
однояйцево, снято же в 2.35:1 или это ни о чём не говорит
тогда сюда
_________________
Изображение
Не в сети
Профиль  
 Добавлено: 2012-08-11 22:31 (спустя 1 час 17 минут)
Top-seeder
Аватара пользователя
Стаж: 8 лет 1 месяц
Возраст: 31
Сообщений: 583
Спасибок: 2
Лайков: 146
норм фильм.
Не в сети
Профиль  
 Добавлено: 2012-08-12 21:26 (спустя 22 часа)
Аватара пользователя
Стаж: 9 лет
Сообщений: 167
Спасибок: 38
1920x1080 такой уже давай
Не в сети
Профиль  
 Добавлено: 2012-08-12 21:35 (спустя 8 минут)
Модератор релиз-группы
Аватара пользователя
Стаж: 9 лет 1 месяц
Возраст: 97
Сообщений: 11659
Спасибок: 6531
Лайков: 269

dilmah:

выложте 1920x1080

dilmah:

1920x1080 такой уже давай
да на, качай на здоровье :ti_pa:
_________________
Изображение
Не в сети
Профиль  
 Добавлено: 2012-08-13 06:05 (спустя 8 часов)
Аватара пользователя
Стаж: 9 лет
Сообщений: 167
Спасибок: 38
спосибо тебе просто таки фильмы с графикой хорошей смотрю по большому тв с хорошим звуком 6.1 филипс хорошо детали отрабатывает до него была плазма четкость немного хуже .вот поэтому только блюха

Добавлено спустя 57 секунд:
но чето скорость не очень
Не в сети
Профиль  
 Добавлено: 2012-08-13 15:38 (спустя 9 часов)
Аватара пользователя
Стаж: 8 лет 1 месяц
Сообщений: 164
Спасибок: 50
Спасибо! :) :) :)
Заценю фильмец :)

Добавлено спустя 16 минут:
Что то скорости вообще нет :( :(
Не в сети
Профиль  
 Добавлено: 2012-08-20 14:59 (спустя 6 дней)
Руководитель релиз-группы
Аватара пользователя
Стаж: 7 лет 4 месяца
Возраст: 31
Сообщений: 3407
Спасибок: 46729
Лайков: 5
viewtopic.php?f=1750&t=477587
Не в сети
Профиль  
Начать новую темуОтветить на тему  [ Сообщений: 9 ] 
Вы не можете начинать темы
Вы не можете отвечать на сообщения
Вы не можете редактировать свои сообщения
Вы не можете удалять свои сообщения