Правила форума

Здесь находятся раздачи, на которых не было полного источника (сида) более месяца.
Вы можете вернуть релиз в соответствующий раздел, для этого напишите нам в специальной теме и встаньте на раздачу.
Новые релизы, повторяющие релизы в архиве, повторами не считаются.
Начать новую темуОтветить на тему  [ Сообщений: 6 ] 
Сообщения
 Добавлено: 2012-08-09 16:12
Аватара пользователя
Стаж: 8 лет 8 месяцев
Сообщений: 4786
Спасибок: 47986
Лайков: 19
Морской бой / Battleship

Изображение

Страна: США
Жанр: Фантастика, боевик, триллер
Год выпуска: 2012
Продолжительность: 02:11:21

Перевод: Профессиональный (дублированный)
Cубтитры: русские
Оригинальная аудиодорожка: английский

Режиссер: (Питер Берг / Peter Berg)

В ролях: Тейлор Китч, Александр Скарсгард, Рианна, Бруклин Декер, Таданобу Асано, Лиам Нисон, Джон Туи, Грегори Д. Гэдсон, Джесси Племонс, Хамиш Линклэйтер, Питер МакНикол, Джерри Феррара, Адам Годли, Рико МакКлинтон, Дзездзи Йошида, Луис Ломбарди, Стефен Бишоп, Данте Хименез, Остин Нолти, Джеймс Роулингс, Эндрю Серпас, Карсон Он, Даг Пенти, Джошуа Пенс, Питер Берг, Ллойд Питтс

Описание: Мы посылаем сигналы в космос и ждем ответа. Но уверены ли мы, что хотим его получить? Что если пришельцы потенциально опасны? В 2009 году на конференции в Вашингтоне астронавт Эдгар Митчелл, побывавший на Луне, сделал сенсационное заявление о существовании внеземной жизни. Теперь мы знаем, контакт не просто возможен, он неизбежен!

Формат: MKV
Качество: BDRip 720p [HiDt]
Видео: MPEG-4 AVC, 7158 Кбит/с, 1280x534
Аудио: Russian: AC3, 384 kb/s (6 ch) / English: DTS, 1510 kb/s (6 ch)
Субтитры: Russian, English [Full, SDH], Romanian
Дополнительно: Сохранены оригинальные чаптеры как на Blu-Ray

Скачать: Сэмпл

Релиз группы Изображение

MediaInfo
Unique ID : 208070870844228972686746208990369704102 (0x9C88FDF8638B3A6BBF8A6A1520A868A6)
Complete name : Morskoj.boj.2012.D.BDRip.720p.IRONCLUB.mkv
Format : Matroska
Format version : Version 2
File size : 8.30 GiB
Duration : 2h 11mn
Overall bit rate : 9 051 Kbps
Movie name : IRONCLUB
Encoded date : UTC 2012-08-09 07:49:46
Writing application : mkvmerge v4.9.1 ('Ich will') built on Jul 11 2011 23:53:15
Writing library : libebml v1.2.1 + libmatroska v1.1.1

Video
ID : 1
Format : AVC
Format/Info : Advanced Video Codec
Format profile : High@L4.1
Format settings, CABAC : Yes
Format settings, ReFrames : 12 frames
Codec ID : V_MPEG4/ISO/AVC
Duration : 2h 11mn
Bit rate : 7 158 Kbps
Width : 1 280 pixels
Height : 534 pixels
Display aspect ratio : 2.40:1
Frame rate : 23.976 fps
Color space : YUV
Chroma subsampling : 4:2:0
Bit depth : 8 bits
Scan type : Progressive
Bits/(Pixel*Frame) : 0.437
Stream size : 6.40 GiB (77%)
Title : Battleship.2012.720p.BluRay.DTS.x264-HiDt
Writing library : x264 core 125 r2208 d9d2288
Encoding settings : cabac=1 / ref=12 / deblock=1:-3:-3 / analyse=0x3:0x113 / me=tesa / subme=11 / psy=1 / psy_rd=1.00:0.00 / mixed_ref=1 / me_range=32 / chroma_me=1 / trellis=2 / 8x8dct=1 / cqm=0 / deadzone=21,11 / fast_pskip=0 / chroma_qp_offset=-2 / threads=12 / lookahead_threads=2 / sliced_threads=0 / nr=0 / decimate=1 / interlaced=0 / bluray_compat=0 / constrained_intra=0 / bframes=6 / b_pyramid=2 / b_adapt=2 / b_bias=0 / direct=3 / weightb=1 / open_gop=0 / weightp=2 / keyint=240 / keyint_min=23 / scenecut=40 / intra_refresh=0 / rc_lookahead=120 / rc=2pass / mbtree=1 / bitrate=7158 / ratetol=1.0 / qcomp=0.72 / qpmin=0 / qpmax=69 / qpstep=4 / cplxblur=20.0 / qblur=0.5 / ip_ratio=1.40 / aq=1:0.80 / zones=176080,186380,b=0.2
Language : English
Default : Yes
Forced : Yes

Audio #1
ID : 2
Format : AC-3
Format/Info : Audio Coding 3
Mode extension : CM (complete main)
Codec ID : A_AC3
Duration : 2h 11mn
Bit rate mode : Constant
Bit rate : 384 Kbps
Channel(s) : 6 channels
Channel positions : Front: L C R, Side: L R, LFE
Sampling rate : 48.0 KHz
Bit depth : 16 bits
Compression mode : Lossy
Stream size : 360 MiB (4%)
Title : DD 5.1 @ 384 kbps - Dub, Chistyj zvuk
Language : Russian
Default : Yes
Forced : Yes

Audio #2
ID : 3
Format : DTS
Format/Info : Digital Theater Systems
Codec ID : A_DTS
Duration : 2h 11mn
Bit rate mode : Constant
Bit rate : 1 510 Kbps
Channel(s) : 6 channels
Channel positions : Front: L C R, Side: L R, LFE
Sampling rate : 48.0 KHz
Bit depth : 24 bits
Compression mode : Lossy
Stream size : 1.38 GiB (17%)
Title : DTS 5.1 @ 1536 kbps
Language : English
Default : No
Forced : No

Text #1
ID : 4
Format : UTF-8
Codec ID : S_TEXT/UTF8
Codec ID/Info : UTF-8 Plain Text
Language : Russian
Default : No
Forced : No

Text #2
ID : 5
Format : UTF-8
Codec ID : S_TEXT/UTF8
Codec ID/Info : UTF-8 Plain Text
Language : English
Default : No
Forced : No

Text #3
ID : 6
Format : UTF-8
Codec ID : S_TEXT/UTF8
Codec ID/Info : UTF-8 Plain Text
Title : SDH
Language : English
Default : No
Forced : No

Text #4
ID : 7
Format : UTF-8
Codec ID : S_TEXT/UTF8
Codec ID/Info : UTF-8 Plain Text
Language : Romanian
Default : No
Forced : No

Menu
00:00:00.000 : en:Chapter 01
00:09:24.105 : en:Chapter 02
00:15:04.320 : en:Chapter 03
00:23:08.678 : en:Chapter 04
00:29:44.032 : en:Chapter 05
00:36:26.809 : en:Chapter 06
00:42:01.268 : en:Chapter 07
00:49:09.655 : en:Chapter 08
00:56:08.323 : en:Chapter 09
01:00:02.223 : en:Chapter 10
01:09:50.519 : en:Chapter 11
01:15:26.730 : en:Chapter 12
01:20:56.935 : en:Chapter 13
01:29:47.423 : en:Chapter 14
01:37:14.411 : en:Chapter 15
01:43:32.247 : en:Chapter 16
01:49:38.572 : en:Chapter 17
01:56:20.682 : en:Chapter 18
02:00:41.359 : en:Chapter 19
02:09:33.974 : en:Chapter 20
Свернуть

Скриншоты
Изображение
Изображение
Изображение
Изображение
Изображение
Изображение
Свернуть
_________________
Intel Core i7-5930K 4.6 GHz / ASUS Rampage V Extreme / GeForce GTX 1080 SLI / Corsair Dominator Platinum 128 Гб (8x16 Гб) / 512Gb SSD Samsung 950 Pro Series / Corsair AX1200i / Corsair H110i GTX / ASUS ROG Swift PG279Q
Не в сети
Профиль  
 Добавлено: 2012-08-10 06:02 (спустя 13 часов)
Аватара пользователя
Стаж: 8 лет 2 месяца
Возраст: 38
Сообщений: 94
Спасибок: 24
это лицензия?
Не в сети
Профиль  
 Добавлено: 2012-08-10 10:23 (спустя 4 часа)
Top-releaser
Аватара пользователя
Стаж: 6 лет 7 месяцев
Сообщений: 2078
Спасибок: 3230
Лайков: 9
Хороший фильм. Мне понравилось :)
Не в сети
Профиль  
 Добавлено: 2012-08-11 01:50 (спустя 15 часов)
Стаж: 7 лет 5 месяцев
Сообщений: 103
Лайков: 4
вот зачем такое снимают и тратят деньги на создание..вот ничего нету стоящего кроме пару взрывов...тупой американский боевик, их эра в начале 2000 закончилась, а они опять за своё..=(
Не в сети
Профиль  
 Добавлено: 2012-08-19 19:45 (спустя 8 дней)
Аватара пользователя
Стаж: 8 лет
Возраст: 39
Сообщений: 182
Спасибок: 530
Лайков: 1
Мдя... фильм фигня, ждал его, только из-за Лиама Ниссона... Лиама слишком мало, да и вообще фильмы по компьютерным игрушкам - полное Г....
Не в сети
Профиль  
 Добавлено: 2012-08-20 15:03 (спустя 19 часов)
Руководитель релиз-группы
Аватара пользователя
Стаж: 7 лет 5 месяцев
Возраст: 31
Сообщений: 3406
Спасибок: 46729
Лайков: 5
viewtopic.php?f=1750&t=477589
Не в сети
Профиль  
Начать новую темуОтветить на тему  [ Сообщений: 6 ] 
Вы не можете начинать темы
Вы не можете отвечать на сообщения
Вы не можете редактировать свои сообщения
Вы не можете удалять свои сообщения