Правила форума

Здесь находятся раздачи, на которых не было полного источника (сида) более месяца.
Вы можете вернуть релиз в соответствующий раздел, для этого напишите нам в специальной теме и встаньте на раздачу.
Новые релизы, повторяющие релизы в архиве, повторами не считаются.
Начать новую темуОтветить на тему  [ 1 сообщение ] 
Сообщения
 Добавлено: 2012-05-23 16:04
Аватара пользователя
Стаж: 9 лет 1 месяц
Сообщений: 59
Спасибок: 337
Мой ангел-хранитель / My Sister's Keeper

Изображение


Год выпуска: 2009
Страна: США (Curmudgeon Films)
Жанр: Драма
Продолжительность: 01:49:22
Перевод: Профессиональный (многоголосый закадровый)
Субтитры: Русские, Английские

Режиссёр: Ник Кассаветис
Сценарист: Джереми Левин, Ник Кассаветис, Джоди Пиколт
Продюсер: Скотт Голдман, Марк Джонсон, Чак Пачеко
Оператор: Калеб Дешанель
Композитор: Аарон Зигман
В ролях: Алек Болдуин, Кэмерон Диаз, Эбигэйл Бреслин, Томас Деккер, Джоан Кьюсак, Джейсон Патрик, София Васильева, Элизабет Дэйли, Ивэн Эллингсон, Дэвид Торнтон, Хезер Уолкуист, Бреннан Бэйли, Дэвид Бортолуччи, Николь Мари Ленц, Эндрю Шэк, Рико Симонини, Энни Вуд
Описание: Бывший адвокат возвращается к практике, когда сталкивается с необычным делом: 13-летняя девочка подает в суд на своих родителей, узнав о том, что она была зачата «в пробирке» лишь для того, чтобы поддерживать жизнь своей сестры, больной лейкемией.

Рейтинг MPAA: Рейтинг PG-13 (Дети до 13 лет допускаются на фильм только с родителями)
Мировая премьера: 26 июня 2009
Бюджет: $30 000 000
Кассовые сборы: $95 645 067
Изображение Изображение

Качество: BDRip(1080p)
Формат: MKV
Видео кодек: H.264
Аудио кодек: AC3 (Dolby Digital)
Видео: MPEG-4 AVC, 9765 Кбит/с, 1920x800, 23.976 кадр/с
Аудио №1: Русский (AC3, 6 ch, 448 Кбит/с), 48 KHz [Профессиональный (многоголосый закадровый)]
Аудио №2: Английский (AC3, 6 ch, 640 Кбит/с), 48 KHz
Субтитры: Русские (отдельным файлом), Английские

"MediaInfo"
General
Полное имя : D:\Moj.angel-hranitel.2009.x264.BDRip(1080p).mkv
Формат : Matroska
Размер файла : 8.29 GiB
Продолжительность : 1h 49mn
Общий поток : 10.9 Mbps
Фильм : --SCHUMAHER--
Дата кодирования : UTC 2009-12-03 14:49:22
Программа-кодировщик : mkvmerge v2.1.0 ('Another Place To Fall') built on Aug 19 2007 13:40:07
Библиотека кодирования : libebml v0.7.7 + libmatroska v0.8.1

Video
Идентификатор : 1
Формат : AVC
Формат/Информация : Advanced Video Codec
Профайл формата : High@L4.0
Параметры CABAC формата : Yes
Параметры ReFrames формата : 5 frames
Режим смешивания : Container profile=Unknown@4.0
Идентификатор кодека : V_MPEG4/ISO/AVC
Продолжительность : 1h 49mn
Битрейт : 9 547 Kbps
Номинальный битрейт : 9 765 Kbps
Ширина : 1 920 pixels
Высота : 800 pixels
Соотношение кадра : 2.400
Частота кадров : 23.976 fps
Разрешение : 24 bits
Колориметрия : 4:2:0
Тип развёртки : Progressive
Бит/(Пиксели*Кадры) : 0.259
Размер потока : 7.29 GiB (88%)
Библиотека кодирования : x264 core 77 r1292 e381f6d
Настройки программы : cabac=1 / ref=5 / deblock=1:0:0 / analyse=0x3:0x113 / me=umh / subme=7 / psy=1 / psy_rd=1.0:0.2 / mixed_ref=1 / me_range=16 / chroma_me=1 / trellis=1 / 8x8dct=1 / cqm=0 / deadzone=21,11 / chroma_qp_offset=-3 / threads=6 / nr=0 / decimate=1 / mbaff=0 / constrained_intra=0 / bframes=3 / b_pyramid=0 / b_adapt=1 / b_bias=0 / direct=3 / wpredb=1 / keyint=250 / keyint_min=25 / scenecut=40 / rc_lookahead=40 / rc=2pass / mbtree=1 / bitrate=9765 / ratetol=1.0 / qcomp=0.60 / qpmin=10 / qpmax=51 / qpstep=4 / cplxblur=20.0 / qblur=0.5 / ip_ratio=1.40 / aq=1:1.00
Язык : English

Audio #1
Идентификатор : 2
Формат : AC-3
Формат/Информация : Audio Coding 3
Идентификатор кодека : A_AC3
Продолжительность : 1h 49mn
Вид битрейта : Constant
Битрейт : 448 Kbps
Канал(ы) : 6 channels
Расположение каналов : Front: L C R, Surround: L R, LFE
Частота : 48.0 KHz
Размер потока : 350 MiB (4%)
Язык : Russian

Audio #2
Идентификатор : 3
Формат : AC-3
Формат/Информация : Audio Coding 3
Идентификатор кодека : A_AC3
Продолжительность : 1h 49mn
Вид битрейта : Constant
Битрейт : 640 Kbps
Канал(ы) : 6 channels
Расположение каналов : Front: L C R, Surround: L R, LFE
Частота : 48.0 KHz
Размер потока : 501 MiB (6%)
Язык : English

Text
Идентификатор : 4
Формат : UTF-8
Идентификатор кодека : S_TEXT/UTF8
Идентификатор кодека/Информация : UTF-8 Plain Text
Язык : English
Свернуть

Скриншоты
Изображение
Изображение
Изображение
Свернуть
Не в сети
Профиль  
Начать новую темуОтветить на тему  [ 1 сообщение ] 
Вы не можете начинать темы
Вы не можете отвечать на сообщения
Вы не можете редактировать свои сообщения
Вы не можете удалять свои сообщения