Правила форума

Здесь находятся раздачи, на которых не было полного источника (сида) более месяца.
Вы можете вернуть релиз в соответствующий раздел, для этого напишите нам в специальной теме и встаньте на раздачу.
Новые релизы, повторяющие релизы в архиве, повторами не считаются.
Начать новую темуОтветить на тему  [ Сообщений: 10 ] 
Сообщения
 Добавлено: 2012-08-21 12:19
Аватара пользователя
Стаж: 8 лет 8 месяцев
Сообщений: 4786
Спасибок: 47984
Лайков: 19
Мстители / The Avengers (2012) [1080p] BDRip

Изображение


Русское название: Мстители
Оригинальное название: The Avengers
Год выпуска: 2012
Жанр: Фантастика, Боевик, Приключения
Производство: США, Marvel Enterprises, Marvel Studios Inc.
Описание фильма:
Локи, сводный брат Тора, возвращается, и в этот раз он не один. Земля на грани порабощения, и только лучшие из лучших могут спасти человечество. Ник Фьюри, глава международной организации Щ. И. Т., собирает выдающихся поборников справедливости и добра, чтобы отразить атаку. Под предводительством Капитана Америки Железный Человек, Тор, Невероятный Халк, Соколиный глаз и Чёрная Вдова вступают в войну с захватчиком.

Режиссер: Джосс Уидон
Актеры: Роберт Дауни мл., Крис Эванс, Марк Руффало, Крис Хемсворт, Скарлетт Йоханссон, ДжеремиРеннер, Том Хиддлстон, Сэмюэл Л. Джексон

Продолжительность: 02:22:54
Перевод: Дублированный
Язык субтитров: Русские, Английские
Вид субтитров: Вшитые

Дата мировой премьеры: 25 апреля 2012
Дата российской премьеры: 3 мая 2012, «WDSSPR»
Дата выхода DVD релиза: 28 августа 2012

Видеокодек: MPEG-4 AVC/H.264
Битрейт видео: ~11,7 Мбит/сек
Размер кадра: 1920x1080, 23.976 кадр/с
Качество видео: BDRip
Аудиокодек: AC3 5.1
Битрейт аудио: 1)Rus : 640 Кбит/сек,6ch, 2)Eng : 320 Кбит/сек,6ch
Сэмпл: Ссылка
Рецензия, отзыв о фильме«Мстители» — умопомрачительная, захватывающая и просто незабываемая фантастическая лента студии «Marvel». Однозначно, пока что лучший экшн-фильм этого года и, сто процентно, лучшая работа студии за долгие годы индустрии. В фильме есть все: качественная картинка, отличная операторская работа, напряженная до самых финальных титров атмосфера, феерические экшн-сцены и просто поражающие драки персонажей, которые однозначно не оставят равнодушным настоящего ценителя кино. Всенепременно, благодарю создателей и всю съёмочную группу за проделанную работу, она была проделана не зря. Спасибо!
MediaInfo
Общее
Уникальный идентификатор : 213582227270732767915909507011096452758 (0xA0AE70D24D74B4048E745F3BE4ED9E96)
Полное имя : D:\Downloads\The Avengers.mkv
Формат : Matroska
Версия формата : Version 2
Размер файла : 12,9 Гбайт
Продолжительность : 2 ч. 22 м.
Режим общего битрейта : Переменный
Общий поток : 13,0 Мбит/сек
Дата кодирования : UTC 2012-08-21 04:39:41
Программа кодирования : mkvmerge v5.6.0 ('Kenya Kane') built on Jun 29 2012 15:01:44
Библиотека кодирования : libebml v1.2.3 + libmatroska v1.3.0

Видео
Идентификатор : 1
Формат : AVC
Формат/Информация : Advanced Video Codec
Профиль формата : High@L4.0
Параметр CABAC формата : Да
Параметр ReFrames формата : 2 кадра
Режим смешивания : Header stripping
Идентификатор кодека : V_MPEG4/ISO/AVC
Продолжительность : 2 ч. 22 м.
Вид битрейта : Переменный
Битрейт : 11,7 Мбит/сек
Максимальный битрейт : 17,5 Мбит/сек
Ширина : 1920 пикселей
Высота : 1080 пикселей
Соотношение сторон : 16:9
Частота кадров : 23,976 кадра/сек
Цветовое пространство : YUV
Субдискретизация насыщенности : 4:2:0
Битовая глубина : 8 бит
Тип развёртки : Прогрессивная
Бит/(Пиксели*Кадры) : 0.236
Размер потока : 11,7 Гбайт (91%)
Default : Да
Forced : Нет

Аудио #1
Идентификатор : 2
Формат : AC-3
Формат/Информация : Audio Coding 3
Расширение режима : CM (complete main)
Параметр Endianness формата : Big
Режим смешивания : Header stripping
Идентификатор кодека : A_AC3
Продолжительность : 2 ч. 22 м.
Вид битрейта : Постоянный
Битрейт : 640 Кбит/сек
Каналы : 6 каналов
Расположение каналов : Front: L C R, Side: L R, LFE
Частота : 48,0 КГц
Битовая глубина : 16 бит
Метод сжатия : С потерями
Задержка видео : -42 мс.
Размер потока : 654 Мбайт (5%)
Default : Нет
Forced : Нет

Аудио #2
Идентификатор : 3
Формат : AC-3
Формат/Информация : Audio Coding 3
Расширение режима : CM (complete main)
Параметр Endianness формата : Big
Режим смешивания : Header stripping
Идентификатор кодека : A_AC3
Продолжительность : 2 ч. 22 м.
Вид битрейта : Постоянный
Битрейт : 320 Кбит/сек
Каналы : 6 каналов
Расположение каналов : Front: L C R, Side: L R, LFE
Частота : 48,0 КГц
Битовая глубина : 16 бит
Метод сжатия : С потерями
Задержка видео : -42 мс.
Размер потока : 327 Мбайт (2%)
Default : Да
Forced : Нет

Текст #1
Идентификатор : 4
Формат : PGS
Режим смешивания : zlib
Идентификатор кодека : S_HDMV/PGS
Идентификатор кодека/Информация : The same subtitle format used on BDs/HD-DVDs
Default : Да
Forced : Нет

Текст #2
Идентификатор : 5
Формат : PGS
Режим смешивания : zlib
Идентификатор кодека : S_HDMV/PGS
Идентификатор кодека/Информация : The same subtitle format used on BDs/HD-DVDs
Default : Нет
Forced : Нет

Свернуть

Скриншоты:
Изображение
Изображение
Изображение
Изображение
Изображение
Изображение
Изображение
Свернуть
_________________
Intel Core i7-5930K 4.6 GHz / ASUS Rampage V Extreme / GeForce GTX 1080 SLI / Corsair Dominator Platinum 128 Гб (8x16 Гб) / 512Gb SSD Samsung 950 Pro Series / Corsair AX1200i / Corsair H110i GTX / ASUS ROG Swift PG279Q
Не в сети
Профиль  
 Добавлено: 2012-08-21 17:09 (спустя 4 часа)
Супермодератор Инквизиции
Аватара пользователя
Стаж: 8 лет 3 месяца
Возраст: 51
Сообщений: 37877
Спасибок: 1089
Лайков: 2725
на последнем скрине - "брат митька помирает, шаурмы просит"? :-D
_________________
████████████ - сотри монеткой, чтобы получить пароль от этого аккаунта
Пират у копираста спиратил пиастры, копираст у пирата скопипастил фрегат :ps_ih:
Не в сети
Профиль  
 Добавлено: 2012-08-21 17:19 (спустя 10 минут)
Аватара пользователя
Стаж: 5 лет 1 месяц
Сообщений: 101
спасибо. посмотрим :-ok-:
Не в сети
Профиль  
 Добавлено: 2012-08-21 17:26 (спустя 6 минут)
Аватара пользователя
Стаж: 8 лет 8 месяцев
Сообщений: 4786
Спасибок: 47984
Лайков: 19
Basil

Вот что шаурма животворящая делает xD
_________________
Intel Core i7-5930K 4.6 GHz / ASUS Rampage V Extreme / GeForce GTX 1080 SLI / Corsair Dominator Platinum 128 Гб (8x16 Гб) / 512Gb SSD Samsung 950 Pro Series / Corsair AX1200i / Corsair H110i GTX / ASUS ROG Swift PG279Q
Не в сети
Профиль  
 Добавлено: 2012-08-21 17:28 (спустя 1 минута)
Супермодератор Инквизиции
Аватара пользователя
Стаж: 8 лет 3 месяца
Возраст: 51
Сообщений: 37877
Спасибок: 1089
Лайков: 2725
VoRoN52
:-D
_________________
████████████ - сотри монеткой, чтобы получить пароль от этого аккаунта
Пират у копираста спиратил пиастры, копираст у пирата скопипастил фрегат :ps_ih:
Не в сети
Профиль  
 Добавлено: 2012-08-21 18:07 (спустя 38 минут)
Руководитель релиз-группы
Аватара пользователя
Стаж: 7 лет 5 месяцев
Возраст: 31
Сообщений: 3406
Спасибок: 46729
Лайков: 5

VoRoN52:

Параметр ReFrames формата: 2 кадра
Режим смешивания: Header stripping
"качество" видно даже по скринам :(
Ждем нормального рипа
Не в сети
Профиль  
 Добавлено: 2012-08-21 19:09 (спустя 1 час 2 минуты)
Аватара пользователя
Стаж: 6 лет 6 месяцев
Сообщений: 19961
Спасибок: 721
Лайков: 461
:ne_znayu:
_________________
It was I'am ... :jn_pu_sk:
Медали и Ордена
ИзображениеИзображение
Свернуть
Не в сети
Профиль  
 Добавлено: 2012-08-22 00:09 (спустя 4 часа)
Стаж: 5 лет 4 месяца
Сообщений: 2
а что со звуком :ne_znayu:
Не в сети
Профиль  
 Добавлено: 2012-08-22 00:11 (спустя 1 минута)
Руководитель релиз-группы
Аватара пользователя
Стаж: 7 лет 5 месяцев
Возраст: 31
Сообщений: 3406
Спасибок: 46729
Лайков: 5
kapi_toshka
а что с ним ?
Не в сети
Профиль  
 Добавлено: 2012-08-22 01:01 (спустя 49 минут)
Руководитель релиз-группы
Аватара пользователя
Стаж: 7 лет 5 месяцев
Возраст: 31
Сообщений: 3406
Спасибок: 46729
Лайков: 5
viewtopic.php?f=1750&t=477757
Не в сети
Профиль  
Начать новую темуОтветить на тему  [ Сообщений: 10 ] 
Вы не можете начинать темы
Вы не можете отвечать на сообщения
Вы не можете редактировать свои сообщения
Вы не можете удалять свои сообщения