Правила форума

Здесь находятся раздачи, на которых не было полного источника (сида) более месяца.
Вы можете вернуть релиз в соответствующий раздел, для этого напишите нам в специальной теме и встаньте на раздачу.
Новые релизы, повторяющие релизы в архиве, повторами не считаются.
Начать новую темуОтветить на тему  [ 1 сообщение ] 
Сообщения
 Добавлено: 2011-11-16 14:17
Книголюб
Аватара пользователя
Стаж: 7 лет 2 месяца
Сообщений: 2823
Спасибок: 48823
Лайков: 73
Мясник
Der Knochenmann
Изображение


Год выпуска: 2009
Страна: Австрия
Слоган: «Сюрпризное меню для истинных гурманов...»
Жанр: триллер, криминал
Продолжительность: 02:01:16
Перевод: Профессиональный (многоголосый закадровый)

Режиссёр: Вольфганг Мернбергер
В ролях: Йозеф Бирбихлер, Стиппе Эрчег, Дорка Гриллус, Джозеф Хадер
Описание: Частный детектив Бреннер берется помочь своему другу Берти в непростом деле. Приятель Берти, Хорват, арендовал его машину и вот уже несколько недель, как бесследно исчез. Бреннер собирает улики и обнаруживает, что последний раз Хорвата видели в ресторане «Птица-гриль «У Лёшенколя». В ходе расследования выясняется, что в ресторане подают не только жареную курицу, но и другие, весьма специфические, мясные блюда…
Мировая премьера: 9 февраля 2009
Премьера в России: 24 сентября 2009, «P&I Films»
Бюджет: €4 000 000
Изображение 6.441 301

Качество: DVD5
Формат: DVD Video
Видео кодек: MPEG2
Аудио кодек: AC3 (Dolby Digital)
Видео: 720x576 (16:9) 25.00fps 8000kbps 0.354Bits/Pixel
Аудио #1: 48000Hz 6ch 448kbps

MediaInfo
General
Complete name : J:\Mjasnik.2009.P.DVD_Epidemz.net\Mjasnik.2009.P.DVD\VIDEO_TS\VTS_03_1.VOB
Format : MPEG-PS
File size : 1 024 MiB
Duration : 30mn 44s
Overall bit rate : 4 658 Kbps

Video
ID : 224 (0xE0)
Format : MPEG Video
Format version : Version 2
Format profile : Main@Main
Format settings, BVOP : Yes
Format settings, Matrix : Default
Duration : 30mn 44s
Bit rate mode : Variable
Bit rate : 3 669 Kbps
Nominal bit rate : 8 000 Kbps
Width : 720 pixels
Height : 576 pixels
Display aspect ratio : 16:9
Frame rate : 25.000 fps
Standard : PAL
Color space : YUV
Chroma subsampling : 4:2:0
Bit depth : 8 bits
Scan type : Interlaced
Scan order : Top Field First
Compression mode : Lossy
Bits/(Pixel*Frame) : 0.354
Stream size : 807 MiB (79%)

Audio #1
ID : 189 (0xBD)-128 (0x80)
Format : AC-3
Format/Info : Audio Coding 3
Mode extension : CM (complete main)
Muxing mode : DVD-Video
Duration : 30mn 43s
Bit rate mode : Constant
Bit rate : 448 Kbps
Channel(s) : 6 channels
Channel positions : Front: L C R, Side: L R, LFE
Sampling rate : 48.0 KHz
Bit depth : 16 bits
Compression mode : Lossy
Stream size : 98.5 MiB (10%)

Audio #2
ID : 189 (0xBD)-129 (0x81)
Format : AC-3
Format/Info : Audio Coding 3
Mode extension : CM (complete main)
Muxing mode : DVD-Video
Duration : 30mn 43s
Bit rate mode : Constant
Bit rate : 448 Kbps
Channel(s) : 6 channels
Channel positions : Front: L C R, Side: L R, LFE
Sampling rate : 48.0 KHz
Bit depth : 16 bits
Compression mode : Lossy
Stream size : 98.5 MiB (10%)

Menu
Свернуть


Скриншоты
Изображение
Изображение
Изображение
Свернуть
Не в сети
Профиль  
Начать новую темуОтветить на тему  [ 1 сообщение ] 
Вы не можете начинать темы
Вы не можете отвечать на сообщения
Вы не можете редактировать свои сообщения
Вы не можете удалять свои сообщения