Правила форума

Здесь находятся раздачи, на которых не было полного источника (сида) более месяца.
Вы можете вернуть релиз в соответствующий раздел, для этого напишите нам в специальной теме и встаньте на раздачу.
Новые релизы, повторяющие релизы в архиве, повторами не считаются.
Начать новую темуОтветить на тему  [ Сообщений: 5 ] 
Сообщения
 Добавлено: 2011-12-31 18:41
Аватара пользователя
Стаж: 9 лет
Возраст: 9
Сообщений: 225
Спасибок: 236
Лайков: 2
На несколько долларов больше / For A Few Dollars More / Per Qualche Dollaro In Piu

Изображение


Год выпуска: 1965
Страна: Италия / ФРГ / Испания
Слоган: «It's the second motion picture of its kind! It won't be the last!»
Жанр: Вестерн
Продолжительность: 02:12:15
Перевод 1: Профессиональный (многоголосый, закадровый - SomeWax)
Перевод 2: Авторский (одноголосый закадровый - Д.Пучков "Goblin")
Перевод 3: Авторский (одноголосый закадровый - В.Горчаков)
Перевод 4: Авторский (одноголосый закадровый - А.Гаврилов)
Субтитры: Russian (полные и на не переведенные фразы), English

Режиссёр: Серджио Леоне / Sergio Leone
Сценарий: Серджио Леоне / Sergio Leone, Фульвио Морселла / Fulvio Morsella, Лючано Винченцони / Luciano Vincenzoni
Продюсер: Артуро Гонзалез / Arturo González, Альфредо Фрайле / Alfredo Fraile, Альберто Гримальди / Alberto Grimaldi
Оператор: Массимо Далламано / Massimo Dallamano
Композитор: Эннио Морриконе / Ennio Morricone
В ролях: Клинт Иствуд / Clint Eastwood, Марианне Кох / Marianne Koch, Ли Ван Клиф / Lee Van Cleef, Джан Мария Волонте / Gian Maria Volontè, Клаус Кински / Klaus Kinski, Луиджи Пистилли / Luigi Pistilli, Мара Крупп / Mara Krupp, Йозеф Эггер / Joseph Egger, Бенито Стефанелли / Benito Stefanelli
Бюджет: $600 000
Сборы в США: $15 000 000

Мировая премьера: 18 декабря 1965
Релиз на DVD: 26 ноября 2009, «Двадцатый Век Фокс СНГ»

Саундтрек: Скачать
Описание: Заработать несколько лишних долларов честным путем на диком Западе не проблема, если у тебя есть проверенный кольт и разрешение властей на отстрел бандитов. Этим путем и идут бок о бок профессиональные охотники за головами негодяев «Человек без имени» и полковник Мортимер, общая цель которых — преступная банда мексиканца Индио.
Изображение 8.220 (8 587)
Изображение 8.3 (61 479)

MPAA: Изображение - Рейтинг NC-17 (Лица, не достигшие 17 лет, на фильм не допускаются)

Качество: BDRip
Формат: MKV
Видео кодек: H.264
Аудио кодек: AC3
Видео: 1920x816, 12546 Kbps, x264 - High@L4.1, 23.976 fps
Аудио #1: Русский DD 5.1 448 Kbps (SomeWax)
Аудио #2: Русский DD 5.1 448 Kbps (Д.Пучков)
Аудио #3: Русский DD 5.1 448 Kbps (В.Горчаков)
Аудио #4: Русский DD 2.0 256 Kbps (А.Гаврилов)
Аудио #5: Английский DD 5.1 448 Kbps
Субтитры: Russian (полные и на не переведенные фразы), English
Интересные факты о фильме
Человек, посвистывающий и зажигающий сигару в заставке - сам режиссер Серджио Леоне.

Серджио Леоне сначала хотел, чтобы Ли Марвин играл Дугласа Мортимера.

Имя "Кучильо" персонажа Альдо Самбрелла - в переводе с испанского означает "нож". В фильме Кучильо мастер по ножам, что его и подводит.

Ли Ван Клиф утверждал, что он может стрелять быстрее, чем Иствуд. Он проделывал это за три кинокадра (1/8 секунды): выхватить пистолет, взвести спусковой крючок и выстрелить.

В сейфе, который Индио добыл в Эль Пасо, находятся банкноты образца Конфедерации.

Человек-без-имени (Клинт Иствуд) в этой части ходит под именем "Монко" или "Мэнко". По-итальянски "Monco" - "однорукий", что отражается на его персонаже: он все делает левой рукой: дерется, пьет, играет в карты. Правая рука - под пончо у пистолета, всегда готовая стрелять.

Пончо Иствуда никогда не стирали в течение съемок трилогии "Долларов", однако его как минимум раз заштопали. В финальной сцене "За пригоршню долларов" пончо было прострелено семь раз Рамоном. Во второй части Иствуд носит его задом наперед, и зашитые дырки от винчестера Рамона у него на спине.
Свернуть
Media Info
General
Complete name : E:\BDRip 1080p\Per qualche dollaro in più.(1965).BluRay.1080p.x264-McFly.4xRUS.mkv
Format: Matroska
Format version: Version 1
File size: 13.5 GiB
Duration: 2h 13mn
Overall bit rate: 14.5 Mbps
Encoded date: UTC 2008-11-01 19:02:06
Writing application: mkvmerge v2.4.0 ('Fumbling Towards Ecstasy') built on Oct 11 2008 20:13:15
Writing library: libebml v0.7.7 + libmatroska v0.8.1

Video
ID: 1
Format: AVC
Format/Info: Advanced Video Codec
Format profile: High@L4.1
Format settings, CABAC: Yes
Format settings, ReFrames: 4 frames
Codec ID: V_MPEG4/ISO/AVC
Duration: 2h 13mn
Bit rate: 12.5 Mbps
Width: 1 920 pixels
Height: 816 pixels
Display aspect ratio: 2.35:1
Frame rate: 23.976 fps
Color space: YUV
Chroma subsampling: 4:2:0
Bit depth: 8 bits
Scan type: Progressive
Bits/(Pixel*Frame): 0.334
Stream size: 11.3 GiB (84%)
Title: H264 - 12546 Kbps
Writing library: x264 core 60 r895M 16b8f79
Encoding settings: cabac=1 / ref=4 / deblock=1:-3:-3 / analyse=0x3:0x113 / me=umh / subme=7 / rdcmp=psy / brdo=1 / mixed_ref=1 / me_range=16 / chroma_me=1 / trellis=2 / 8x8dct=1 / cqm=2 / deadzone=21,11 / chroma_qp_offset=0 / threads=3 / nr=0 / decimate=1 / mbaff=0 / bframes=3 / b_pyramid=1 / b_adapt=1 / b_bias=0 / direct=3 / wpredb=1 / bime=1 / keyint=250 / keyint_min=25 / scenecut=40(pre) / rc=2pass / bitrate=12546 / ratetol=1.0 / rceq='blurCplx^(1-qComp)' / qcomp=1.00 / qpmin=10 / qpmax=51 / qpstep=4 / cplxblur=20.0 / qblur=0.5 / ip_ratio=1.40 / pb_ratio=1.30 / aq=2:1.00
Language: English

Audio #1
ID: 2
Format: AC-3
Format/Info: Audio Coding 3
Mode extension: CM (complete main)
Codec ID: A_AC3
Duration: 2h 13mn
Bit rate mode: Constant
Bit rate: 448 Kbps
Channel(s): 6 channels
Channel positions: Front: L C R, Side: L R, LFE
Sampling rate: 48.0 KHz
Bit depth: 16 bits
Compression mode: Lossy
Stream size: 426 MiB (3%)
Title: Russian 5.1 (SomeWax)
Language: Russian

Audio #2
ID: 3
Format: AC-3
Format/Info: Audio Coding 3
Mode extension: CM (complete main)
Codec ID: A_AC3
Duration: 2h 13mn
Bit rate mode: Constant
Bit rate: 448 Kbps
Channel(s): 6 channels
Channel positions: Front: L C R, Side: L R, LFE
Sampling rate: 48.0 KHz
Bit depth: 16 bits
Compression mode: Lossy
Stream size: 426 MiB (3%)
Title : Russian 5.1 (Д.Пучков - Goblin)
Language: Russian

Audio #3
ID: 4
Format: AC-3
Format/Info: Audio Coding 3
Mode extension: CM (complete main)
Codec ID: A_AC3
Duration: 2h 13mn
Bit rate mode: Constant
Bit rate: 448 Kbps
Channel(s): 6 channels
Channel positions: Front: L C R, Side: L R, LFE
Sampling rate: 48.0 KHz
Bit depth: 16 bits
Compression mode: Lossy
Stream size: 426 MiB (3%)
Title: Russian 5.1 (В.Горчаков)
Language: Russian

Audio #4
ID: 5
Format: AC-3
Format/Info: Audio Coding 3
Mode extension: CM (complete main)
Codec ID: A_AC3
Duration: 2h 13mn
Bit rate mode: Constant
Bit rate: 256 Kbps
Channel(s): 2 channels
Channel positions: Front: L R
Sampling rate: 48.0 KHz
Bit depth: 16 bits
Compression mode: Lossy
Stream size: 244 MiB (2%)
Title: Russain 2.0 (А.Гаврилов)
Language: Russian

Audio #5
ID: 6
Format: AC-3
Format/Info: Audio Coding 3
Mode extension: CM (complete main)
Codec ID: A_AC3
Duration: 2h 13mn
Bit rate mode: Constant
Bit rate: 448 Kbps
Channel(s): 6 channels
Channel positions: Front: L C R, Side: L R, LFE
Sampling rate: 48.0 KHz
Bit depth: 16 bits
Compression mode: Lossy
Stream size: 426 MiB (3%)
Title: English
Language: English

Text #1
ID: 7
Format: UTF-8
Codec ID: S_TEXT/UTF8
Codec ID/Info: UTF-8 Plain Text
Title: russian (forced - for missing translation)
Language: Russian

Text #2
ID: 8
Format: UTF-8
Codec ID: S_TEXT/UTF8
Codec ID/Info: UTF-8 Plain Text
Title: russian (full text)
Language: Russian

Text #3
ID: 9
Format: UTF-8
Codec ID: S_TEXT/UTF8
Codec ID/Info: UTF-8 Plain Text
Title: english
Language: English

Menu
00:00:00.000 : en:00:00:00.000
00:06:53.413 : en:00:06:53.413
00:12:33.169 : en:00:12:33.169
00:20:48.622 : en:00:20:48.622
00:26:31.590 : en:00:26:31.590
00:31:09.951 : en:00:31:09.951
00:38:09.037 : en:00:38:09.037
00:44:59.906 : en:00:44:59.906
00:51:53.402 : en:00:51:53.402
00:57:36.119 : en:00:57:36.119
01:02:26.493 : en:01:02:26.493
01:09:48.643 : en:01:09:48.643
01:15:12.842 : en:01:15:12.842
01:22:40.164 : en:01:22:40.164
01:28:46.530 : en:01:28:46.530
01:34:13.690 : en:01:34:13.690
01:40:38.241 : en:01:40:38.241
01:46:59.622 : en:01:46:59.622
01:53:16.623 : en:01:53:16.623
01:58:48.079 : en:01:58:48.079
Свернуть
Скриншоты
Изображение
Изображение
Изображение
Свернуть
_________________
Изображение
Изображение
Изображение
Не в сети
Профиль  
 Добавлено: 2012-01-06 22:23 (спустя 6 дней)
Руководитель релиз-группы
Аватара пользователя
Стаж: 8 лет
Сообщений: 2522
Спасибок: 3849
commissar раздай, а?
_________________
РАЗДАЮ 25 ЧАСОВ В СУТКИ ( НА ЧАС РАНЬШЕ ВСТАЮ ) .
МОИ РЕЛИЗЫ...
Изображение
Только попробуй кликнуть :hi_hi_hi:
Стол заказов ; Набор качков в PROrest R.G.
Извините за скорость - ВТ. Но ночью она выше...
ПРОСЬБА: не уходить с раздач...
Не спешите! Все скачаем и поможем закачать другим...
Свернуть
Не в сети
Профиль  
 Добавлено: 2012-01-07 09:14 (спустя 10 часов)
Аватара пользователя
Стаж: 9 лет
Возраст: 9
Сообщений: 225
Спасибок: 236
Лайков: 2

medved61:

commissar раздай, а?
Со скоростью отдачи проблем нет 20мб/с, качай.
_________________
Изображение
Изображение
Изображение
Не в сети
Профиль  
 Добавлено: 2012-01-08 11:59 (спустя 1 день 2 часа)
Стаж: 5 лет
Сообщений: 59
спасибо
Не в сети
Профиль  
 Добавлено: 2012-08-19 15:36 (спустя 7 месяцев)
Стаж: 7 лет
Сообщений: 7
commissar
Спасибо, товарищ, скачал за 20 минут, очень рад! пиши ещё)
Не в сети
Профиль  
Начать новую темуОтветить на тему  [ Сообщений: 5 ] 
Вы не можете начинать темы
Вы не можете отвечать на сообщения
Вы не можете редактировать свои сообщения
Вы не можете удалять свои сообщения