Правила форума

Здесь находятся раздачи, на которых не было полного источника (сида) более месяца.
Вы можете вернуть релиз в соответствующий раздел, для этого напишите нам в специальной теме и встаньте на раздачу.
Новые релизы, повторяющие релизы в архиве, повторами не считаются.
Начать новую темуОтветить на тему  [ 1 сообщение ] 
Сообщения
 Добавлено: 2011-06-21 03:30
Аватара пользователя
Стаж: 6 лет 1 месяц
Возраст: 33
Сообщений: 309
Спасибок: 598
Лайков: 5
На запад от красной скалы (Придорожное заведение) / Red Rock West

Изображение


Год выпуска: 1992
Страна: США
Слоган: Where nothing is as it seems
Жанр: триллер, драма, криминал
Продолжительность: 1:34:25
Перевод: Профессиональный (многоголосый закадровый)

Режиссёр: Джон Дал
Сценарист: Джон Дал, Рик Даль
Продюсер: Стив Голин, Сигурйон Сигватссон, Рик Даль
Оператор: Марк Решовски
Композитор: Уилльям Олвис
В ролях: Николас Кейдж, Деннис Хоппер, Лара Флинн Бойл, Дуайт Йоакам, Тимоти Кархарт, Дэн Шор, Дж. Т. Уолш
Описание: Майкл — бывший морской пехотинец. В его карманах пусто, а единственный шанс найти работу — заехать в придорожный бар Red rock west. В это самое утро местный шериф Уэйн, на самом деле беглый преступник, укравший вместе с женой Сьюзан полмиллиона долларов и разыскиваемый ФБР, поджидает прибытия наемного убийцы из Техаса, нанятого для устранения жены. Увидев Техасские номера машины Майкла, Уэйн решает что дождался киллера вручает Майклу $ 5000 аванса за предстоящую работу. Майкл устремляется к Сьюзан, чтобы предупредить ее и скрыться с наличными. Но к его удивлению Сьюзан удваивает сумму, чтобы он убил Уэйна. Майкл соглашается, но чувствует, что пора смываться. А тем временем к городку подъезжает настоящий наемный убийца Лайн…
Мировая премьера: 16 июня 1993
Бюджет: $8 000 000
Доп. информация:
Сжималось связкой DVDRemake Pro, DVD Rebuilder + CCE/Procoder в 9 проходов, сжатие фильма составляет 30%.
Меню русское подредактированное. Удалено предупреждение о пиратстве и звуковые дорожки Italiano (Dolby AC3, 2 ch), Espanol (Dolby AC3, 2 ch, кнопки в меню на удалённые элементы затёрты. Субтитры как в оригинале.
Качество: DVD5 (Сжатый)
Формат: DVD Video
Видео кодек: MPEG2
Аудио кодек: AC3 (Dolby Digital)
Видео: PAL MPEG-2 Video; 720x576 (16:9); 6015-9000 Kbps; 25,000 fps; 0.580 bpp
Аудио 1: Английский (Dolby AC3, 2 ch) 192 Кбит/сек
Аудио 2: Русские (Dolby AC3, 2 ch) 192 Кбит/сек
Субтитры: English, Italiano, Espanol, Dansk, Suomi, Norsk, Svenska,

MediaInfo
Видео
Идентификатор : 224 (0xE0)
Формат : MPEG Video
Версия формата : Version 2
Профиль формата : Main@Main
Параметр BVOP формата : Да
Параметр матрицы формата : Выборочная
Продолжительность : 21 м.
Вид битрейта : Переменный
Битрейт : 6015 Кбит/сек
Номинальный битрейт : 9000 Кбит/сек
Ширина : 720 пикс.
Высота : 576 пикс.
Соотношение сторон : 16:9
Частота кадров : 25,000 кадр/сек
Стандарт вещания : PAL
Цветовое пространство : YUV
Подвыборка цветности : 4:2:0
Битовая глубина : 8 бит
Тип развёртки : Чересстрочная
Порядок развёртки : Верхнее поле первое
Метод сжатия : С потерями
Бит/(Пиксели*Кадры) : 0.580
Размер потока : 943 Мбайт (92%)

Аудио #1
Идентификатор : 189 (0xBD)-128 (0x80)
Формат : AC-3
Формат/Информация : Audio Coding 3
Профиль формата : Dolby Digital
Расширение режима : CM (complete main)
Режим смешивания : DVD-Video
Продолжительность : 21 м.
Вид битрейта : Постоянный
Битрейт : 192 Кбит/сек
Каналы : 2 канала
Расположение каналов : Front: L R
Частота : 48,0 КГц
Битовая глубина : 16 бит
Метод сжатия : С потерями
Размер потока : 30,1 Мбайт (3%)

Аудио #2
Идентификатор : 189 (0xBD)-131 (0x83)
Формат : AC-3
Формат/Информация : Audio Coding 3
Профиль формата : Dolby Digital
Расширение режима : CM (complete main)
Режим смешивания : DVD-Video
Продолжительность : 21 м.
Вид битрейта : Постоянный
Битрейт : 192 Кбит/сек
Каналы : 2 канала
Расположение каналов : Front: L R
Частота : 48,0 КГц
Битовая глубина : 16 бит
Метод сжатия : С потерями
Размер потока : 30,1 Мбайт (3%)

Текст #1
Идентификатор : 189 (0xBD)-32 (0x20)
Формат : RLE
Формат/Информация : Run-length encoding
Режим смешивания : DVD-Video

Текст #2
Идентификатор : 189 (0xBD)-33 (0x21)
Формат : RLE
Формат/Информация : Run-length encoding
Режим смешивания : DVD-Video

Текст #3
Идентификатор : 189 (0xBD)-34 (0x22)
Формат : RLE
Формат/Информация : Run-length encoding
Режим смешивания : DVD-Video

Текст #4
Идентификатор : 189 (0xBD)-35 (0x23)
Формат : RLE
Формат/Информация : Run-length encoding
Режим смешивания : DVD-Video

Текст #5
Идентификатор : 189 (0xBD)-36 (0x24)
Формат : RLE
Формат/Информация : Run-length encoding
Режим смешивания : DVD-Video

Текст #6
Идентификатор : 189 (0xBD)-37 (0x25)
Формат : RLE
Формат/Информация : Run-length encoding
Режим смешивания : DVD-Video

Текст #7
Идентификатор : 189 (0xBD)-38 (0x26)
Формат : RLE
Формат/Информация : Run-length encoding
Режим смешивания : DVD-Video
Свернуть


Скриншоты
Изображение
Изображение
Изображение
Изображение
Изображение
Свернуть

Не в сети
Профиль  
Начать новую темуОтветить на тему  [ 1 сообщение ] 
Вы не можете начинать темы
Вы не можете отвечать на сообщения
Вы не можете редактировать свои сообщения
Вы не можете удалять свои сообщения