Правила форума

Здесь находятся раздачи, на которых не было полного источника (сида) более месяца.
Вы можете вернуть релиз в соответствующий раздел, для этого напишите нам в специальной теме и встаньте на раздачу.
Новые релизы, повторяющие релизы в архиве, повторами не считаются.
Начать новую темуОтветить на тему  [ Сообщений: 4 ] 
Сообщения
 Добавлено: 2011-12-01 06:02
Top-releaser
Аватара пользователя
Стаж: 7 лет 3 месяца
Возраст: 25
Сообщений: 1036
Спасибок: 2694
Лайков: 9
Начинающие / Beginners

Изображение



Год выхода: 2010
Страна: США

Жанр: драма, мелодрама, комедия, ...
Продолжительность: 01:44:17
Перевод: Дублированный [лицензия]

Режиссер: Майк Миллс
Сценарий: Майк Миллс
Продюсер: Миранда де Пенсьер, Ларс Надсен, Лесли Урдэнг, ...
Оператор: Каспер Андерсен
Композитор: Роджер Нилл, Дэйв Палмер, Брайан Райцелл

В ролях: Юэн МакГрегор, Кристофер Пламмер, Мелани Лоран, Горан Вишнич, Кай Леннокс, Мэри Пейдж Келлер, Кигэн Боос, Чина Шаверс, Мелисса Тэнг, Аманда Пэйтон, Люк Дилиберто, Лу Тэйлор Пуччи, Хана Хванг, Сэмюэл Т. Риттер, Дженнифер Лоурен, Рейнальдо Пачеко, Джоди Лонг, Брюс Френч, Лесли Ши

Описание: Молодой человек получает от своего отца два известия. Тот сообщает сыну о том, что он болен раком и что у него есть молодой любовник.

Изображение

Pаздача группы:Изображение

Качество: BDRip 1080p
Формат: Mkv

Видео: MPEG4 Video (H264) 1920x1040 23.98fps 6 542 Kbps
Аудио 1: Dolby AC3 48000Hz 6ch 384 Kbps
Аудио 2: Dts 48000Hz 6ch 1 510 Kbps
Subtitle: Utf-8

Изображение

MediaInfo
General
Unique ID : 253779166918993626507437980999867294406 (0xBEEC16F578A2347B920C0955F2C1E2C6)
Complete name : H:\Download\NachinajuschieDVD_RG(1080p).mkv
Format : Matroska
Format version : Version 2
File size : 6.28 GiB
Duration : 1h 44mn
Overall bit rate : 8 607 Kbps
Movie name : --SCHUMAHER--
Encoded date : UTC 2011-11-30 16:50:53
Writing application : mkvmerge v5.1.0 ('And so it goes') built on Nov 28 2011 23:58:28
Writing library : libebml v1.2.3 + libmatroska v1.3.0

Video
ID : 1
Format : AVC
Format/Info : Advanced Video Codec
Format profile : High@L4.1
Format settings, CABAC : Yes
Format settings, ReFrames : 4 frames
Codec ID : V_MPEG4/ISO/AVC
Duration : 1h 44mn
Bit rate : 6 542 Kbps
Width : 1 920 pixels
Height : 1 040 pixels
Display aspect ratio : 16:9
Frame rate : 23.976 fps
Color space : YUV
Chroma subsampling : 4:2:0
Bit depth : 8 bits
Scan type : Progressive
Bits/(Pixel*Frame) : 0.137
Stream size : 4.77 GiB (76%)
Writing library : x264 core 116 r2074 2641b9e
Encoding settings : cabac=1 / ref=4 / deblock=1:-4:-4 / analyse=0x3:0x133 / me=umh / subme=10 / psy=1 / psy_rd=0.90:0.10 / mixed_ref=1 / me_range=64 / chroma_me=1 / trellis=2 / 8x8dct=1 / cqm=0 / deadzone=4,4 / fast_pskip=0 / chroma_qp_offset=-3 / threads=12 / sliced_threads=0 / nr=0 / decimate=0 / interlaced=0 / bluray_compat=0 / constrained_intra=0 / bframes=10 / b_pyramid=2 / b_adapt=0 / b_bias=0 / direct=3 / weightb=1 / open_gop=0 / weightp=2 / keyint=240 / keyint_min=2 / scenecut=40 / intra_refresh=0 / rc=crf / mbtree=0 / crf=18.0 / qcomp=0.75 / qpmin=0 / qpmax=69 / qpstep=4 / ip_ratio=1.37 / pb_ratio=1.25 / aq=2:1.00
Language : English

Audio #1
ID : 2
Format : AC-3
Format/Info : Audio Coding 3
Mode extension : CM (complete main)
Codec ID : A_AC3
Duration : 1h 44mn
Bit rate mode : Constant
Bit rate : 384 Kbps
Channel(s) : 6 channels
Channel positions : Front: L C R, Side: L R, LFE
Sampling rate : 48.0 KHz
Bit depth : 16 bits
Compression mode : Lossy
Stream size : 287 MiB (4%)
Language : Russian

Audio #2
ID : 3
Format : DTS
Format/Info : Digital Theater Systems
Codec ID : A_DTS
Duration : 1h 44mn
Bit rate mode : Constant
Bit rate : 1 510 Kbps
Channel(s) : 6 channels
Channel positions : Front: L C R, Side: L R, LFE
Sampling rate : 48.0 KHz
Bit depth : 24 bits
Compression mode : Lossy
Stream size : 1.10 GiB (18%)
Language : English

Text #1
ID : 4
Format : UTF-8
Codec ID : S_TEXT/UTF8
Codec ID/Info : UTF-8 Plain Text
Title : Forced
Language : Russian

Text #2
ID : 5
Format : UTF-8
Codec ID : S_TEXT/UTF8
Codec ID/Info : UTF-8 Plain Text
Language : English

Menu
00:00:00.000 : en:
00:11:50.458 : en:
00:23:31.410 : en:
00:33:15.951 : en:
00:42:40.931 : en:
00:51:14.945 : en:
01:03:05.697 : en:
01:14:59.744 : en:
01:25:31.042 : en:
01:34:09.600 : en:


Свернуть
Скриншоты
Изображение
Изображение
Изображение
Изображение
Изображение
Свернуть
Не в сети
Профиль  
 Добавлено: 2011-12-03 19:04 (спустя 2 дня 13 часов)
Кинокомментатор
Аватара пользователя
Стаж: 9 лет 1 месяц
Сообщений: 1332
Лайков: 54
зачёт кино!) очень странное) очень путоное) и про геев))) но по сути очень даже смотрибельно классное:) и про отношения:) отношения людей:) отцов и детей) мужчин и женщин) и просто одиноких людей...
ЗЫ: МакГрегор всё более чувственен))
_________________
Я ВКонтакте
Не в сети
Профиль  
 Добавлено: 2011-12-03 23:04 (спустя 3 часа)
Top-releaser
Аватара пользователя
Стаж: 7 лет 3 месяца
Возраст: 25
Сообщений: 1036
Спасибок: 2694
Лайков: 9

Bronks:

зачёт кино!) очень странное) очень путоное) и про геев))) ... и про отношения:) ... отцов и детей) мужчин и женщин) ...
мужчин и мужчин..
Cкрытый текст
;;-))) :-D
Свернуть
Не в сети
Профиль  
 Добавлено: 2011-12-05 01:13 (спустя 1 день 2 часа)
Аватара пользователя
Стаж: 8 лет 8 месяцев
Сообщений: 314
Спасибок: 362
НА самом деле фильм очень красивый и своеобразный .... Порадовали костюмы актеров и домашняя обстановка в сценах фильма!
Не в сети
Профиль  
Начать новую темуОтветить на тему  [ Сообщений: 4 ] 
Вы не можете начинать темы
Вы не можете отвечать на сообщения
Вы не можете редактировать свои сообщения
Вы не можете удалять свои сообщения