Правила форума

Здесь находятся раздачи, на которых не было полного источника (сида) более месяца.
Вы можете вернуть релиз в соответствующий раздел, для этого напишите нам в специальной теме и встаньте на раздачу.
Новые релизы, повторяющие релизы в архиве, повторами не считаются.
Начать новую темуОтветить на тему  [ Сообщений: 7 ] 
Сообщения
 Добавлено: 2012-06-29 19:23
Книголюб
Аватара пользователя
Стаж: 7 лет 2 месяца
Сообщений: 2823
Спасибок: 48825
Лайков: 73
Напролом
Lockout

Изображение


Год выпуска: 2012
Страна: Франция
Слоган: «В одиночку против 500. В чем проблема?»
Жанр: фантастика, боевик, триллер,
Продолжительность: 01:29:39
Перевод: Профессиональный (дубляж)

Режиссёр: Джеймс Мэтер, Стивен Ст. Леджер
В ролях: Гай Пирс, Мэгги Грэйс, Винсент Риган, Джозеф Гилган, Катрин Чан, Роберт Джон Бёрк, Джеймс Хонг, Энсон Маунт, Крис Сарандон, Сандор Текси, Джозеф Сикора, Игорь Жижикин, Регги Ли
Описание: Орбитальная станция MS1 — крупнейшая космическая тюрьма, где в анабиозе содержатся тысячи опасных преступников. Ходят слухи, что над погруженными в искусственный сон узниками проводятся противозаконные эксперименты. С расследованием на станцию отправлена комиссия во главе с Эмили Уорнок, дочерью президента США.

Неожиданно ситуация выходит из-под контроля, и вся станция оказывается захвачена уголовниками. Спецагент Сноу, несправедливо обвиненный в государственной измене, получает задание проникнуть в самую неприступную тюрьму во Вселенной и спасти Эмили. Это его единственный шанс вернуть себе доброе имя и получить свободу.
Рейтинг MPAA: Рейтинг PG-13 (Дети до 13 лет допускаются на фильм только с родителями)
Мировая премьера: 7 апреля 2012,
Премьера в России: 17 мая 2012, «Вольга»
Бюджет: $20 000 000
Изображение 6.668 3 385

Качество: BDRip 720p Звук с TS.
Формат: MKV
Видео кодек: H.264
Аудио кодек: AC3 (Dolby Digital)
Видео: 5060 kb/s, 1280x528 23.976fps 0.312Bits/Pixel
Аудио #1: Russian: AC3, 192 kb/s 48000Hz stereo
Аудио #2: English: DTS, 1510 kb/s TS 48000Hz 6ch
MediaInfo
General
Unique ID : 239913177181781050606637494888896697185 (0xB47D98E20460B613BC86CDB97DC89361)
Complete name : K:\Torrent\Naprolom..mkv
Format : Matroska
Format version : Version 2
File size : 4.50 GiB
Duration : 1h 35mn
Overall bit rate : 6 759 Kbps
Encoded date : UTC 2012-06-29 06:55:03
Writing application : mkvmerge v5.5.0 ('Healer') built on Apr 6 2012 21:43:24
Writing library : libebml v1.2.3 + libmatroska v1.3.0

Video
ID : 1
Format : AVC
Format/Info : Advanced Video Codec
Format profile : High@L4.1
Format settings, CABAC : Yes
Format settings, ReFrames : 5 frames
Muxing mode : Header stripping
Codec ID : V_MPEG4/ISO/AVC
Duration : 1h 35mn
Bit rate : 5 060 Kbps
Width : 1 280 pixels
Height : 528 pixels
Display aspect ratio : 2.40:1
Frame rate : 23.976 fps
Color space : YUV
Chroma subsampling : 4:2:0
Bit depth : 8 bits
Scan type : Progressive
Bits/(Pixel*Frame) : 0.312
Stream size : 3.28 GiB (73%)
Writing library : x264 core 125 r2200 999b753
Encoding settings : cabac=1 / ref=5 / deblock=1:0:0 / analyse=0x3:0x133 / me=umh / subme=7 / psy=1 / psy_rd=1.00:0.00 / mixed_ref=1 / me_range=16 / chroma_me=1 / trellis=1 / 8x8dct=1 / cqm=0 / deadzone=21,11 / fast_pskip=0 / chroma_qp_offset=-2 / threads=12 / lookahead_threads=2 / sliced_threads=0 / nr=0 / decimate=1 / interlaced=0 / bluray_compat=0 / constrained_intra=0 / bframes=3 / b_pyramid=2 / b_adapt=1 / b_bias=0 / direct=1 / weightb=1 / open_gop=0 / weightp=2 / keyint=250 / keyint_min=23 / scenecut=40 / intra_refresh=0 / rc_lookahead=40 / rc=2pass / mbtree=1 / bitrate=5060 / ratetol=1.0 / qcomp=0.60 / qpmin=0 / qpmax=69 / qpstep=4 / cplxblur=20.0 / qblur=0.5 / ip_ratio=1.40 / aq=1:1.00
Language : English
Default : Yes
Forced : No

Audio #1
ID : 2
Format : AC-3
Format/Info : Audio Coding 3
Mode extension : CM (complete main)
Muxing mode : Header stripping
Codec ID : A_AC3
Duration : 1h 35mn
Bit rate mode : Constant
Bit rate : 192 Kbps
Channel(s) : 2 channels
Channel positions : Front: L R
Sampling rate : 48.0 KHz
Bit depth : 16 bits
Compression mode : Lossy
Stream size : 131 MiB (3%)
Title : DUB TS
Language : Russian
Default : Yes
Forced : No

Audio #2
ID : 3
Format : DTS
Format/Info : Digital Theater Systems
Muxing mode : Header stripping
Codec ID : A_DTS
Duration : 1h 35mn
Bit rate mode : Constant
Bit rate : 1 510 Kbps
Channel(s) : 6 channels
Channel positions : Front: L C R, Side: L R, LFE
Sampling rate : 48.0 KHz
Bit depth : 24 bits
Compression mode : Lossy
Stream size : 1.01 GiB (22%)
Default : No
Forced : No


Свернуть

Скриншоты
Изображение
Изображение
Изображение
Изображение
Свернуть
Не в сети
Профиль  
 Добавлено: 2012-06-29 20:12 (спустя 49 минут)
Аватара пользователя
Стаж: 6 лет 10 месяцев
Возраст: 38
Сообщений: 152
звук нормальный?
Не в сети
Профиль  
 Добавлено: 2012-06-29 20:58 (спустя 45 минут)
Стаж: 8 лет
Сообщений: 5
звук плохой,что говорят, плохо разобрать
Не в сети
Профиль  
 Добавлено: 2012-06-30 04:52 (спустя 7 часов)
Аватара пользователя
Стаж: 9 лет
Сообщений: 167
Спасибок: 38
давай полный блю рей
Не в сети
Профиль  
 Добавлено: 2012-06-30 11:47 (спустя 6 часов)
Аватара пользователя
Стаж: 4 года 11 месяцев
Сообщений: 67

dilmah:

давай полный блю рей
поддерживаю! :bra_vo:
Не в сети
Профиль  
 Добавлено: 2012-07-02 19:41 (спустя 2 дня 7 часов)
Аватара пользователя
Стаж: 7 лет 8 месяцев
Сообщений: 91
когдаж перевод будет
Не в сети
Профиль  
 Добавлено: 2012-07-13 23:47 (спустя 11 дней)
Руководитель релиз-группы
Аватара пользователя
Стаж: 7 лет 4 месяца
Возраст: 31
Сообщений: 3407
Спасибок: 46729
Лайков: 5
viewtopic.php?f=1743&t=473867
Не в сети
Профиль  
Начать новую темуОтветить на тему  [ Сообщений: 7 ] 
Вы не можете начинать темы
Вы не можете отвечать на сообщения
Вы не можете редактировать свои сообщения
Вы не можете удалять свои сообщения