Правила форума

Здесь находятся раздачи, на которых не было полного источника (сида) более месяца.
Вы можете вернуть релиз в соответствующий раздел, для этого напишите нам в специальной теме и встаньте на раздачу.
Новые релизы, повторяющие релизы в архиве, повторами не считаются.
Начать новую темуОтветить на тему  [ Сообщений: 6 ] 
Сообщения
 Добавлено: 2012-02-02 16:32
Top-releaser
Аватара пользователя
Стаж: 8 лет 9 месяцев
Сообщений: 479
Спасибок: 20187
Лайков: 16
Изображение

Не бойся темноты

Don't Be Afraid of the Dark


«Страх ничто просто верь»


Год выпуска: 2011
Страна: ИзображениеСША, Изображение Мексика, Изображение Австралия; Miramax Films, FilmDistrict, Necropia
Жанр: Ужасы, фэнтези, триллер
Продолжительность: 01:39:31
Перевод: Профессиональный (дублированный) [Лицензия], Украинский, Оригинал
Субтитры: Русские, английские

Режиссёр: Трой Никси / Troy Nixey

В ролях: Кэти Холмс, Гай Пирс, Бэйли Мэдисон, Джек Томпсон, Брюс Глисон, Эдвина Ричард, Гарри МакДональд, Кэролин Шекспир-Аллен, Джулия Блейк, Дэвид Точчи

Описание: Салли Хёрст — одинокая замкнутая девочка, которая приезжает на Род Айленд, чтобы пожить со своим отцом и его девушкой в старинном особняке девятнадцатого века, который они реставрируют. Исследуя обветшавший дом, Салли находит потайной подвал, куда никто не заглядывал с момента загадочного исчезновения архитектора особняка, произошедшего больше века назад.

Сама того не желая, Салли выпускает на свободу древние порождения тьмы, которые собираются затащить ее в страшную бездну, скрывающуюся под полом старого дома. Теперь ей предстоит убедить Алекса и Ким, что это не плод ее фантазии — пока отталкивающие существа не поглотили их всех.



Качество: BDRip 1080p
Формат: MKV

Видео: MPEG-4 AVC, 11.0 Мбит/с, 1920x1036, 23.976 кадр/с

Аудио 1: DTS at 768 Кбит/сек, 6 канала(ов), 48,0 КГц [Дубляж]
Аудио 2: AC-3 at 384 Кбит/сек, 6 канала(ов), 48,0 КГц [Украинский]
Аудио 3: DTS at 1510 Кбит/сек, 6 канала(ов), 48,0 КГц [Оригинал]
Раздача: Изображение

Изображение

Изображение
MediaInfo

Общее
Уникальный идентификатор : 247980830093206430703630964183607898640 (0xBA8F5EE1AD32C6369E0311D4F04D7210)
Полное имя : C:\Users\Домашний\Desktop\Ne bojsja temnoty.2011.BDRip(1080p)[nntt].mkv
Формат : Matroska
Размер файла : 9,50 Гбайт
Продолжительность : 1 ч. 39 м.
Общий поток : 13,7 Мбит/сек
Название фильма : --SCHUMAHER--
Дата кодирования : UTC 2012-01-31 21:55:37
Программа кодирования : mkvmerge v5.2.0 ('I can't explain') built on Dec 18 2011 18:12:03
Библиотека кодирования : libebml v1.2.3 + libmatroska v1.3.0

Видео
Идентификатор : 1
Формат : AVC
Формат/Информация : Advanced Video Codec
Профиль формата : High@L4.1
Параметр CABAC формата : Да
Параметр ReFrames формата : 4 кадры
Идентификатор кодека : V_MPEG4/ISO/AVC
Продолжительность : 1 ч. 39 м.
Битрейт : 11,0 Мбит/сек
Ширина : 1920 пикс.
Высота : 1036 пикс.
Соотношение сторон : 1,853
Частота кадров : 23,976 кадр/сек
Цветовое пространство : YUV
Подвыборка цветности : 4:2:0
Битовая глубина : 8 бит
Тип развёртки : Прогрессивная
Бит/(Пиксели*Кадры) : 0.231
Размер потока : 7,47 Гбайт (79%)
Библиотека кодирования : x264 core 119 r2106 07efeb4
Настройки программы : cabac=1 / ref=4 / deblock=1:-3:-3 / analyse=0x3:0x113 / me=umh / subme=10 / psy=1 / psy_rd=1.05:0.10 / mixed_ref=1 / me_range=48 / chroma_me=1 / trellis=2 / 8x8dct=1 / cqm=1 / deadzone=21,11 / fast_pskip=0 / chroma_qp_offset=-2 / threads=12 / sliced_threads=0 / nr=0 / decimate=1 / interlaced=0 / bluray_compat=0 / constrained_intra=0 / bframes=6 / b_pyramid=2 / b_adapt=2 / b_bias=0 / direct=3 / weightb=1 / open_gop=0 / weightp=2 / keyint=250 / keyint_min=23 / scenecut=40 / intra_refresh=0 / rc_lookahead=60 / rc=2pass / mbtree=1 / bitrate=11020 / ratetol=2.0 / qcomp=0.70 / qpmin=3 / qpmax=69 / qpstep=4 / cplxblur=20.0 / qblur=0.5 / vbv_maxrate=40000 / vbv_bufsize=30000 / nal_hrd=none / ip_ratio=1.40 / aq=2:1.00
Язык : English

Аудио #1
Идентификатор : 2
Формат : DTS
Формат/Информация : Digital Theater Systems
Идентификатор кодека : A_DTS
Продолжительность : 1 ч. 39 м.
Вид битрейта : Постоянный
Битрейт : 755 Кбит/сек
Канал(ы) : 6 канала(ов)
Расположение каналов : Front: L C R, Side: L R, LFE
Частота : 48,0 КГц
Битовая глубина : 24 бит
Метод сжатия : С потерями
Размер потока : 537 Мбайт (6%)
Язык : Russian

Аудио #2
Идентификатор : 3
Формат : AC-3
Формат/Информация : Audio Coding 3
Расширение режима : CM (complete main)
Идентификатор кодека : A_AC3
Продолжительность : 1 ч. 39 м.
Вид битрейта : Постоянный
Битрейт : 384 Кбит/сек
Канал(ы) : 6 канала(ов)
Расположение каналов : Front: L C R, Side: L R, LFE
Частота : 48,0 КГц
Битовая глубина : 16 бит
Метод сжатия : С потерями
Размер потока : 273 Мбайт (3%)
Язык : Ukrainian

Аудио #3
Идентификатор : 4
Формат : DTS
Формат/Информация : Digital Theater Systems
Идентификатор кодека : A_DTS
Продолжительность : 1 ч. 39 м.
Вид битрейта : Постоянный
Битрейт : 1510 Кбит/сек
Канал(ы) : 6 канала(ов)
Расположение каналов : Front: L C R, Side: L R, LFE
Частота : 48,0 КГц
Битовая глубина : 24 бит
Метод сжатия : С потерями
Размер потока : 1,05 Гбайт (11%)
Язык : English

Текст #1
Идентификатор : 5
Формат : UTF-8
Идентификатор кодека : S_TEXT/UTF8
Идентификатор кодека/Информация : UTF-8 Plain Text
Язык : Russian

Текст #2
Идентификатор : 6
Формат : UTF-8
Идентификатор кодека : S_TEXT/UTF8
Идентификатор кодека/Информация : UTF-8 Plain Text
Язык : English

Меню
00:00:00.000 : en:
00:07:40.251 : en:
00:15:26.258 : en:
00:20:33.065 : en:
00:26:16.324 : en:
00:33:43.438 : en:
00:38:55.916 : en:
00:42:34.343 : en:
00:49:24.335 : en:
00:58:25.793 : en:
01:02:39.130 : en:
01:07:35.176 : en:
01:11:44.383 : en:
01:15:34.988 : en:
01:27:02.841 : en:
01:30:13.866 : en:


Свернуть
Скриншоты

Изображение
Изображение
Изображение
Изображение
Изображение
Свернуть
_________________
Изображение
Изображение


Последний раз редактировалось Джокер 2012-02-06 19:57, всего редактировалось 1 раз.
Не в сети
Профиль  
 Добавлено: 2012-02-02 16:41 (спустя 8 минут)
Модератор
Аватара пользователя
Стаж: 6 лет 10 месяцев
Возраст: 33
Сообщений: 5908
Спасибок: 61257
Лайков: 3540
И я тоже оформил этот релиз, тогда помогу с раздачей. :)
_________________
ИзображениеИзображение Изображение
Изображение
Не в сети
Профиль  
 Добавлено: 2012-02-02 16:42 (спустя 1 минута)
Top-releaser
Аватара пользователя
Стаж: 8 лет 9 месяцев
Сообщений: 479
Спасибок: 20187
Лайков: 16
rotametr
;)
_________________
Изображение
Изображение
Не в сети
Профиль  
 Добавлено: 2012-02-02 17:09 (спустя 26 минут)
Аватара пользователя
Стаж: 8 лет 6 месяцев
Сообщений: 21
нормальный такой фильм
Не в сети
Профиль  
 Добавлено: 2012-02-06 18:32 (спустя 4 дня)
Аватара пользователя
Стаж: 8 лет 5 месяцев
Возраст: 28
Сообщений: 13
Фильмец на один раз :ne_ne:
_________________
Изображение Изображение
Изображение
Не в сети
Профиль  
 Добавлено: 2012-02-06 18:41 (спустя 9 минут)
Стаж: 8 лет 7 месяцев
Сообщений: 9
Спасибок: 86
ссылка на кинопоиск не для этого фильма
Не в сети
Профиль  
Начать новую темуОтветить на тему  [ Сообщений: 6 ] 
Вы не можете начинать темы
Вы не можете отвечать на сообщения
Вы не можете редактировать свои сообщения
Вы не можете удалять свои сообщения