Правила форума

Здесь находятся раздачи, на которых не было полного источника (сида) более месяца.
Вы можете вернуть релиз в соответствующий раздел, для этого напишите нам в специальной теме и встаньте на раздачу.
Новые релизы, повторяющие релизы в архиве, повторами не считаются.
Начать новую темуОтветить на тему  [ 1 сообщение ] 
Сообщения
 Добавлено: 2011-08-31 09:59
Top-releaser
Аватара пользователя
Стаж: 6 лет 7 месяцев
Сообщений: 2078
Спасибок: 3230
Лайков: 9
Небесный капитан и Мир будущего / Sky Captain and the World of Tomorrow

Изображение

Год выпуска: 2004
Страна: США
Жанр: Фантастика, боевик, триллер, приключения
Продолжительность: 01:46:36
Перевод:
  • Профессиональный (дубляж)
  • Профессиональный двухголосый (Tycoon studio)
  • Профессиональный одноголосый (Ю.Живов)

Режиссёр: Керри Конран
В ролях: Гвинет Пэлтроу, Джуд Лоу, Джованни Рибизи, Майкл Гэмбон, Линь Бай, Омид Джалили, Лоуренс Оливье, Анджелина Джоли, Тревор Бакстер, Джулиан Керри, Питер Ло, Джон Рамни, Хан Бонфилс
Описание: Действие разворачивается в Нью-Йорке 1939 года. Молодая журналистка узнает о том, что всемирно известные ученые пропадают при невыясненных обстоятельствах. Объединившись с опытным пилотом и искателем приключений, она пытается нарушить планы сумасшедшего, стремящегося завладеть миром…

Раздача группы: Изображение

Качество: BDRip
Формат: MKV
Видео кодек: H.264
Аудио кодек: DTS
Видео: 1280x720, 23.976 fps, 4475 kbps
Аудио #1: DTS 5.1 48 kHz 768 kbps - дубляж
Аудио #2: DTS 5.1 48 kHz 1536 kbps - Tycoon studio
Аудио #3: DTS 5.1 48 kHz 768 kbps - Ю.Живов
Аудио #4: AC3 5.1 48 kHz 640 kbps - оригинал
Аудио #5: LC AAC 2.0 48 kHz 96 kbps - английский(коментарии)
Аудио #6: LC AAC 2.0 48 kHz 96 kbps - английский(коментарии)
Субтитры: Русские, русские(комментарии), английские


Скриншоты
Изображение

Изображение

Изображение

Изображение
Свернуть

MediaInfo
Общее
Уникальный идентификатор : 249327400250381590576566906730292758291 (0xBB92B5EA86D48CBDA6E89867CAA0C713)
Полное имя : L:\Небесный капитан и Мир будущего.720p\Sky.Captain.and.the.World.of.Tomorrow.720p.mkv
Формат : Matroska
Версия формата : Version 2
Размер файла : 6,20 Гбайт
Продолжительность : 1 ч. 46 м.
Общий поток : 8329 Кбит/сек
Название фильма : HANSMER
Дата кодирования : UTC 2011-02-14 20:13:33
Программа кодирования : mkvmerge v4.5.0 ('Speed of Light') сборка от Feb 1 2011 02:10:32
Библиотека кодирования : libebml v1.2.0 + libmatroska v1.1.0

Видео
Идентификатор : 1
Формат : AVC
Формат/Информация : Advanced Video Codec
Профиль формата : High@L4.1
Параметр CABAC формата : Да
Параметр ReFrames формата : 8 кадров
Идентификатор кодека : V_MPEG4/ISO/AVC
Продолжительность : 1 ч. 46 м.
Номинальный битрейт : 4475 Кбит/сек
Ширина : 1280 пикселей
Высота : 720 пикселей
Соотношение сторон : 16:9
Частота кадров : 23,976 кадра/сек
Цветовое пространство : YUV
Субдискретизация насыщенности : 4:2:0
Битовая глубина : 8 бит
Тип развёртки : Прогрессивная
Бит/(Пиксели*Кадры) : 0.203
Заголовок : Sky.Captain.and.the.World.of.Tomorrow.2004.Blu-ray.JPN.720p.x264
Библиотека кодирования : x264 core 114 r1900 60ef1f8
Настройки программы : cabac=1 / ref=8 / deblock=1:-3:-3 / analyse=0x3:0x113 / me=esa / subme=10 / psy=1 / psy_rd=1.00:0.00 / mixed_ref=1 / me_range=32 / chroma_me=1 / trellis=2 / 8x8dct=1 / cqm=0 / deadzone=21,11 / fast_pskip=0 / chroma_qp_offset=-2 / threads=12 / sliced_threads=0 / nr=0 / decimate=1 / interlaced=0 / constrained_intra=0 / bframes=10 / b_pyramid=2 / b_adapt=2 / b_bias=0 / direct=3 / weightb=1 / open_gop=0 / weightp=2 / keyint=250 / keyint_min=23 / scenecut=40 / intra_refresh=0 / rc_lookahead=60 / rc=2pass / mbtree=0 / bitrate=4475 / ratetol=1.0 / qcomp=0.70 / qpmin=10 / qpmax=51 / qpstep=4 / cplxblur=20.0 / qblur=0.5 / vbv_maxrate=50000 / vbv_bufsize=62500 / nal_hrd=none / ip_ratio=1.40 / pb_ratio=1.30 / aq=1:1.00
Язык : English
Коэффициенты матрицы : BT.709-5, BT.1361, IEC 61966-2-4 709, SMPTE RP177

Аудио #1
Идентификатор : 2
Формат : DTS
Формат/Информация : Digital Theater Systems
Идентификатор кодека : A_DTS
Продолжительность : 1 ч. 46 м.
Вид битрейта : Постоянный
Битрейт : 755 Кбит/сек
Каналы : 6 каналов
Расположение каналов : Front: L C R, Side: L R, LFE
Частота : 48,0 КГц
Битовая глубина : 24 бит
Метод сжатия : С потерями
Размер потока : 575 Мбайт (9%)
Заголовок : Dub
Язык : Russian

Аудио #2
Идентификатор : 3
Формат : DTS
Формат/Информация : Digital Theater Systems
Идентификатор кодека : A_DTS
Продолжительность : 1 ч. 46 м.
Вид битрейта : Постоянный
Битрейт : 1510 Кбит/сек
Каналы : 6 каналов
Расположение каналов : Front: L C R, Side: L R, LFE
Частота : 48,0 КГц
Битовая глубина : 24 бит
Метод сжатия : С потерями
Размер потока : 1,12 Гбайт (18%)
Заголовок : Tycoon
Язык : Russian

Аудио #3
Идентификатор : 4
Формат : DTS
Формат/Информация : Digital Theater Systems
Идентификатор кодека : A_DTS
Продолжительность : 1 ч. 46 м.
Вид битрейта : Постоянный
Битрейт : 755 Кбит/сек
Каналы : 6 каналов
Расположение каналов : Front: L C R, Side: L R, LFE
Частота : 48,0 КГц
Битовая глубина : 24 бит
Метод сжатия : С потерями
Размер потока : 575 Мбайт (9%)
Заголовок : Zivov
Язык : Russian

Аудио #4
Идентификатор : 5
Формат : AC-3
Формат/Информация : Audio Coding 3
Расширение режима : CM (complete main)
Идентификатор кодека : A_AC3
Продолжительность : 1 ч. 46 м.
Вид битрейта : Постоянный
Битрейт : 640 Кбит/сек
Каналы : 6 каналов
Расположение каналов : Front: L C R, Side: L R, LFE
Частота : 48,0 КГц
Битовая глубина : 16 бит
Метод сжатия : С потерями
Размер потока : 488 Мбайт (8%)
Язык : English

Аудио #5
Идентификатор : 6
Формат : AAC
Формат/Информация : Advanced Audio Codec
Профиль формата : LC
Идентификатор кодека : A_AAC
Продолжительность : 1 ч. 46 м.
Каналы : 2 канала
Расположение каналов : Front: L R
Частота : 48,0 КГц
Метод сжатия : С потерями
Заголовок : Commentary 1
Язык : English

Аудио #6
Идентификатор : 7
Формат : AAC
Формат/Информация : Advanced Audio Codec
Профиль формата : LC
Идентификатор кодека : A_AAC
Продолжительность : 1 ч. 46 м.
Каналы : 2 канала
Расположение каналов : Front: L R
Частота : 48,0 КГц
Метод сжатия : С потерями
Заголовок : Commentary 2
Язык : English

Текст #1
Идентификатор : 8
Формат : UTF-8
Идентификатор кодека : S_TEXT/UTF8
Идентификатор кодека/Информация : UTF-8 Plain Text
Заголовок : Main
Язык : Russian

Текст #2
Идентификатор : 9
Формат : UTF-8
Идентификатор кодека : S_TEXT/UTF8
Идентификатор кодека/Информация : UTF-8 Plain Text
Заголовок : Commentary 1
Язык : Russian

Текст #3
Идентификатор : 10
Формат : UTF-8
Идентификатор кодека : S_TEXT/UTF8
Идентификатор кодека/Информация : UTF-8 Plain Text
Язык : English

Меню
00:00:00.000 : en:Above Gotham
00:06:00.026 : en:Radio City
00:11:26.477 : en:Giant Robots Attack
00:16:45.671 : en:The Atomizer
00:23:47.051 : en:Doctor Jennings' Lab
00:28:08.353 : en:The Flying Wings
00:36:45.912 : en:Dex Disappears
00:41:03.211 : en:Journey to Nepal
00:46:11.727 : en:A Blank Spot on the Map
00:53:26.787 : en:The Moon and the Stars
01:01:33.273 : en:The Flying Fortress
01:06:03.918 : en:Alert the Amphibious Squadron
01:12:37.853 : en:Monster Island
01:17:54.545 : en:The Ark
01:24:51.670 : en:The Mysterious Dr. Totenkopf
01:31:05.793 : en:Lens Cap
01:36:01.130 : en:Credits
Свернуть
Не в сети
Профиль  
Начать новую темуОтветить на тему  [ 1 сообщение ] 
Вы не можете начинать темы
Вы не можете отвечать на сообщения
Вы не можете редактировать свои сообщения
Вы не можете удалять свои сообщения