Правила форума

Здесь находятся раздачи, на которых не было полного источника (сида) более месяца.
Вы можете вернуть релиз в соответствующий раздел, для этого напишите нам в специальной теме и встаньте на раздачу.
Новые релизы, повторяющие релизы в архиве, повторами не считаются.
Начать новую темуОтветить на тему  [ Сообщений: 2 ] 
Сообщения
 Добавлено: 2011-11-25 17:32
Top-releaser
Аватара пользователя
Стаж: 8 лет 7 месяцев
Сообщений: 1286
Спасибок: 3420
Лайков: 7
Нет мужчин - нет проблем / Without Men

Изображение
Год выпуска: 2011
Страна: США
Жанр: комедия
Продолжительность: 01:26:46
Перевод: Профессиональный (многоголосый, закадровый) [лицензия]

Режиссер: Габриела Тальявини
Сценарий: Джеймс Кэнон, Габриела Тальявини
Продюсер: Энтони Муди, Джейсон Прайс, Лукас Джарач, Nadja Atwal, Джеймс Ордонез
Оператор: Эндрю Стрэхорн
Композитор: Карло Силиотто

В ролях: Ева Лонгория (Rosalba), Кристиан Слэйтер (Gordon), Оскар Нунез (Priest Rafael), Кейт дель Кастилло (Cleotilde), Mónica Huarte (Cecilia), Ивет Йэтс (Virgelina), Мария Кончита Алонсо (Lucrecia), Гильермо Диас (Campo Elias), Пол Родригез (Camacho), Камрин Менхейм (Boss), Джуди Рейс (Magnolia), Фернанда Ромеро (Ubaldina)

Описание: Американский военный корреспондент Гордон рыщет по Латинской Америке в поисках сенсаций. И удача улыбается ему! Журналист узнает, что в одном богом забытом городке всех мужчин в одночасье забрали в партизанскую армию. Теперь их женам, сестрам и дочерям под предводительством очаровательной Розальбы приходится строить новый мир - мир без мужчин. И Гордон отправляется к месту событий…

Релиз: Изображение Раздача: Изображение

Изображение

Бюджет: $4 700 000
Мировая премьера: 29 июня 2011
Релиз на DVD: 24 ноября 2011, «Вольга»

Изображение
Качество: BDRip
Формат: Matroska
Видео: AVC; 1280x720 (16:9); 6766 kbps; 23,976 fps; 0,306 bit/pixel
Аудио №1: Russian; AC3; 256 kbps; CBR; 6 channels; 16 bit
Аудио №2: English; AC3; 448 kbps; CBR; 6 channels; 16 bit

Субтитры: English
Изображение
MediaInfo
Общее
Уникальный идентификатор : 194525732930358093864173389682197879701 (0x92584B1C4AA4467693E7B93916BF5B95)
Полное имя : E:\Видео\Net.muzhchin.net.problem.2011.P.BDRip.720p.ELEKTRI4KA.mkv
Формат : Matroska
Версия формата : Version 2
Размер файла : 4,53 Гбайт
Продолжительность : 1 ч. 26 м.
Общий поток : 7470 Кбит/сек
Название фильма : ELEKTRI4KA
Дата кодирования : UTC 2011-11-25 01:06:16
Программа кодирования : mkvmerge v5.0.1 ('Es ist Sommer') built on Oct 9 2011 11:55:43
Библиотека кодирования : libebml v1.2.2 + libmatroska v1.3.0

Видео
Идентификатор : 1
Формат : AVC
Формат/Информация : Advanced Video Codec
Профиль формата : High@L4.1
Параметр CABAC формата : Да
Параметр ReFrames формата : 5 кадров
Идентификатор кодека : V_MPEG4/ISO/AVC
Продолжительность : 1 ч. 26 м.
Битрейт : 6766 Кбит/сек
Ширина : 1280 пикселей
Высота : 720 пикселей
Соотношение сторон : 16:9
Частота кадров : 23,976 кадра/сек
Цветовое пространство : YUV
Субдискретизация насыщенности : 4:2:0
Битовая глубина : 8 бит
Тип развёртки : Прогрессивная
Бит/(Пиксели*Кадры) : 0.306
Размер потока : 4,01 Гбайт (89%)
Библиотека кодирования : x264 core 118 r2085 8a62835
Настройки программы : cabac=1 / ref=5 / deblock=1:-1:-1 / analyse=0x3:0x112 / me=umh / subme=7 / psy=1 / psy_rd=1.00:0.00 / mixed_ref=1 / me_range=16 / chroma_me=1 / trellis=1 / 8x8dct=1 / cqm=0 / deadzone=21,11 / fast_pskip=0 / chroma_qp_offset=-2 / threads=12 / sliced_threads=0 / nr=0 / decimate=1 / interlaced=0 / bluray_compat=0 / constrained_intra=0 / bframes=3 / b_pyramid=2 / b_adapt=2 / b_bias=0 / direct=1 / weightb=1 / open_gop=0 / weightp=2 / keyint=250 / keyint_min=23 / scenecut=40 / intra_refresh=0 / rc_lookahead=40 / rc=2pass / mbtree=1 / bitrate=6766 / ratetol=1.0 / qcomp=0.60 / qpmin=0 / qpmax=69 / qpstep=4 / cplxblur=20.0 / qblur=0.5 / ip_ratio=1.40 / aq=1:1.00
Язык : English
Default : Да
Forced : Нет

Аудио #1
Идентификатор : 2
Формат : AC-3
Формат/Информация : Audio Coding 3
Расширение режима : CM (complete main)
Идентификатор кодека : A_AC3
Продолжительность : 1 ч. 26 м.
Вид битрейта : Постоянный
Битрейт : 256 Кбит/сек
Каналы : 6 каналов
Расположение каналов : Front: L C R, Side: L R, LFE
Частота : 48,0 КГц
Битовая глубина : 16 бит
Метод сжатия : С потерями
Размер потока : 159 Мбайт (3%)
Заголовок : MVO R5
Язык : Russian
Default : Да
Forced : Нет

Аудио #2
Идентификатор : 3
Формат : AC-3
Формат/Информация : Audio Coding 3
Расширение режима : CM (complete main)
Идентификатор кодека : A_AC3
Продолжительность : 1 ч. 26 м.
Вид битрейта : Постоянный
Битрейт : 448 Кбит/сек
Каналы : 6 каналов
Расположение каналов : Front: L C R, Side: L R, LFE
Частота : 48,0 КГц
Битовая глубина : 16 бит
Метод сжатия : С потерями
Размер потока : 278 Мбайт (6%)
Язык : English
Default : Нет
Forced : Нет

Текст
Идентификатор : 4
Формат : UTF-8
Идентификатор кодека : S_TEXT/UTF8
Идентификатор кодека/Информация : UTF-8 Plain Text
Язык : English
Default : Нет
Forced : Нет
Свернуть

Скриншоты

Изображение

Изображение

Изображение

Изображение

Свернуть
Не в сети
Профиль  
 Добавлено: 2011-11-27 19:31 (спустя 2 дня 1 час)
Аватара пользователя
Стаж: 9 лет 1 месяц
Сообщений: 223
Спасибок: 67
Давно ничего подобного не смотрел... Как то до этого времени везло...
Не в сети
Профиль  
Начать новую темуОтветить на тему  [ Сообщений: 2 ] 
Вы не можете начинать темы
Вы не можете отвечать на сообщения
Вы не можете редактировать свои сообщения
Вы не можете удалять свои сообщения