Правила форума

Здесь находятся раздачи, на которых не было полного источника (сида) более месяца.
Вы можете вернуть релиз в соответствующий раздел, для этого напишите нам в специальной теме и встаньте на раздачу.
Новые релизы, повторяющие релизы в архиве, повторами не считаются.
Начать новую темуОтветить на тему  [ Сообщений: 5 ] 
Сообщения
 Добавлено: 2012-10-06 00:26
Модератор релиз-группы
Аватара пользователя
Стаж: 9 лет 1 месяц
Возраст: 97
Сообщений: 11659
Спасибок: 6530
Лайков: 269
Неудержимые 2 / The Expendables 2

«Они вернулись, чтобы зажечь»

Изображение

Год выпуска: 2012
Страна: США
Жанр: боевик, триллер
Продолжительность: 01:42:16
Перевод: Профессиональный (полное дублирование) Лицензия
Режиссер: Саймон Уэст

В ролях: Сильвестр Сталлоне, Джейсон Стэйтем, Дольф Лундгрен, Жан-Клод Ван Дамм, Терри Крюс, Рэнди Кутюр, Лиам Хемсворт, Юй Нань, Брюс Уиллис, Арнольд Шварценеггер, Чак Норрис, Джет Ли

Описание: Можно ли попробовать изменить расстановку сил в мире? Да, если вы круты как Ван Дамм, у вас есть пять тонн плутония и первоклассные наемники. Стоит ли шутить с Уиллисом, когда вы ему серьезно задолжали? Нет, даже если вы опасны как Сталлоне и у вас за спиной Неудержимые.
Кого позвать на такое плевое дельце, как спасение мира? Пара проверенных ребят, Стэйтем и Норрис, явно не помешают. Пригодятся и малыш Хемсворт, и опасная красотка. Но команда будет неполной без Шварценеггера. Он реально вернулся! Все в сборе. Понеслась.

Качество: BDRip, 1080p
Формат: Mkv
Видео: MPEG4 Video (H264), 1920x1080, 23.976fps, ~13000 Кбит/с
Аудио: Russian; AC3, 6 ch, 448 Кбит/сек

скриншоты
Изображение

Изображение

Изображение
Свернуть
Mi
Format : Matroska
Format version : Version 2
File size : 9.15 GiB
Duration : 1h 42mn
Overall bit rate mode : Variable
Overall bit rate : 12.8 Mbps
Encoded date : UTC 2012-10-05 21:18:59
Writing application : mkvmerge v5.8.0 ('No Sleep / Pillow') built on Sep 2 2012 15:37:04
Writing library : libebml v1.2.3 + libmatroska v1.3.0

Video
ID : 1
Format : AVC
Format/Info : Advanced Video Codec
Format profile : High@L4.0
Format settings, CABAC : Yes
Format settings, ReFrames : 3 frames
Codec ID : V_MPEG4/ISO/AVC
Duration : 1h 42mn
Bit rate mode : Variable
Bit rate : 12.1 Mbps
Nominal bit rate : 13.0 Mbps
Maximum bit rate : 20.0 Mbps
Width : 1 920 pixels
Height : 1 080 pixels
Display aspect ratio : 16:9
Frame rate : 23.976 fps
Color space : YUV
Chroma subsampling : 4:2:0
Bit depth : 8 bits
Scan type : Progressive
Bits/(Pixel*Frame) : 0.244
Stream size : 8.65 GiB (95%)
Writing library : x264 core 93 r1542M 5b86182
Encoding settings : cabac=1 / ref=4 / deblock=1:0:0 / analyse=0x3:0x12 / me=hex / subme=2 / psy=1 / psy_rd=0.00:0.00 / mixed_ref=0 / me_range=16 / chroma_me=1 / trellis=0 / 8x8dct=1 / cqm=0 / deadzone=21,11 / fast_pskip=1 / chroma_qp_offset=0 / threads=3 / sliced_threads=0 / nr=0 / decimate=1 / interlaced=0 / constrained_intra=0 / bframes=3 / b_pyramid=1 / b_adapt=1 / b_bias=0 / direct=1 / wpredb=1 / wpredp=0 / keyint=48 / keyint_min=8 / scenecut=40 / intra_refresh=0 / rc_lookahead=48 / rc=abr / mbtree=0 / bitrate=13041 / ratetol=1.0 / qcomp=0.50 / qpmin=10 / qpmax=51 / qpstep=4 / vbv_maxrate=20000 / vbv_bufsize=25000 / ip_ratio=1.10 / pb_ratio=1.10 / aq=1:1.00 / nal_hrd=vbr
Default : Yes
Forced : No

Audio
ID : 2
Format : AC-3
Format/Info : Audio Coding 3
Mode extension : CM (complete main)
Format settings, Endianness : Big
Codec ID : A_AC3
Duration : 1h 42mn
Bit rate mode : Constant
Bit rate : 448 Kbps
Channel(s) : 6 channels
Channel positions : Front: L C R, Side: L R, LFE
Sampling rate : 48.0 KHz
Bit depth : 16 bits
Compression mode : Lossy
Stream size : 328 MiB (3%)
Default : Yes
Forced : No

Свернуть
_________________
Изображение
Не в сети
Профиль  
 Добавлено: 2012-10-06 01:59 (спустя 1 час 32 минуты)
Аватара пользователя
Стаж: 8 лет 7 месяцев
Сообщений: 2901
Спасибок: 4796
Лайков: 12
битрейт большой, а скрины грустные. да и сабов нет никаких, и оригинальной дороги тоже.
:(
_________________
Изображение Изображение
Не в сети
Профиль  
 Добавлено: 2012-10-06 07:03 (спустя 5 часов)
Руководитель релиз-группы
Аватара пользователя
Стаж: 7 лет 4 месяца
Возраст: 31
Сообщений: 3407
Спасибок: 46729
Лайков: 5
Артурыч
Блюр и так не блещет, а тут еще с такими настройками кодека сделано :(
временный, до появления лучшего
Не в сети
Профиль  
 Добавлено: 2012-10-06 10:40 (спустя 3 часа)
Модератор релиз-группы
Аватара пользователя
Стаж: 9 лет 1 месяц
Возраст: 97
Сообщений: 11659
Спасибок: 6530
Лайков: 269

askboy:

тут еще с такими настройками кодека
с какими "такими" ?
я думаю что парни из мультиавсхд проекта не глупее паровоза :men:
_________________
Изображение
Не в сети
Профиль  
 Добавлено: 2012-10-06 13:38 (спустя 2 часа 57 минут)
Руководитель релиз-группы
Аватара пользователя
Стаж: 7 лет 4 месяца
Возраст: 31
Сообщений: 3407
Спасибок: 46729
Лайков: 5
viewtopic.php?f=1750&t=483107
Не в сети
Профиль  
Начать новую темуОтветить на тему  [ Сообщений: 5 ] 
Вы не можете начинать темы
Вы не можете отвечать на сообщения
Вы не можете редактировать свои сообщения
Вы не можете удалять свои сообщения