Правила форума

Здесь находятся раздачи, на которых не было полного источника (сида) более месяца.
Вы можете вернуть релиз в соответствующий раздел, для этого напишите нам в специальной теме и встаньте на раздачу.
Новые релизы, повторяющие релизы в архиве, повторами не считаются.
Начать новую темуОтветить на тему  [ Сообщений: 5 ] 
Сообщения
 Добавлено: 2012-10-16 12:28
DVD Release Group
Аватара пользователя
Стаж: 7 лет 1 месяц
Сообщений: 3570
Спасибок: 247851
Лайков: 1020
Неудержимые 2

The Expendables 2

«Они вернулись, чтобы зажечь»


Изображение


Год выпуска: 2012
Страна: США
Жанр: Боевик, приключения
Продолжительность: 01:38:05
Перевод: Профессиональный (полное дублирование)
Cубтитры: Нет
Режиссер: Саймон Уэст
В ролях: Сильвестр Сталлоне, Джейсон Стэйтем, Дольф Лундгрен, Жан-Клод Ван Дамм, Терри Крюс, Арнольд Шварценеггер, Брюс Уиллис, Лиам Хемсворт, Нань Юй, Чак Норрис
Описание: Можно ли попробовать изменить расстановку сил в мире? Да, если вы круты как Ван Дамм, у вас есть пять тонн плутония и первоклассные наемники. Стоит ли шутить с Уиллисом, когда вы ему серьезно задолжали? Нет, даже если вы опасны как Сталлоне и у вас за спиной Неудержимые.
Кого позвать на такое плевое дельце, как спасение мира? Пара проверенных ребят, Стэйтем и Норрис, явно не помешают. Пригодятся и малыш Хемсворт, и опасная красотка. Но команда будет неполной без Шварценеггера. Он реально вернулся! Все в сборе. Понеслась…
Кинопоиск: 7.4 (25875)
IMDb: 7.3 (64070)
Дополнительно:
Исходник: DVD9 (6.92Гб) [лицензия, PAL 16:9].
Убрано: заставки и предупреждение.
Сжатие фильма 38,2% сжатия (без учета ручного перераспределения битрейта, за счет большего сжатия конечных титров).
Работоспособность проверена на софтовом плеере Windows Media и бытовом LG.
Качество: DVD5 (сжатый)
Формат: DVD Video
Видео кодек: MPEG2
Аудио кодек: AC3
Видео: 720х576 25fps 5872Kbps
Аудио: 48kHz 6ch 448Kbps
"MediaInfo"
Формат : MPEG-PS
Размер файла : 1024 Мбайт
Продолжительность : 15 м.
Общий поток : 9286 Кбит/сек

Видео
Идентификатор : 224 (0xE0)
Формат : MPEG Video
Версия формата : Version 2
Профиль формата : Main@Main
Параметр BVOP формата : Да
Параметр матрицы формата : Выборочная
Продолжительность : 15 м.
Битрейт : 8653 Кбит/сек
Максимальный битрейт : 9000 Кбит/сек
Ширина : 720 пикселей
Высота : 576 пикселей
Соотношение сторон : 16:9
Частота кадров : 25,000 кадров/сек
Стандарт вещания : PAL
Цветовое пространство : YUV
Субдискретизация насыщенности : 4:2:0
Битовая глубина : 8 бит
Тип развёртки : Чересстрочная
Порядок развёртки : Верхнее поле первое
Метод сжатия : С потерями
Бит/(Пиксели*Кадры) : 0.835
Размер потока : 954 Мбайт (93%)

Аудио
Идентификатор : 189 (0xBD)-128 (0x80)
Формат : AC-3
Формат/Информация : Audio Coding 3
Расширение режима : CM (complete main)
Режим смешивания : DVD-Video
Продолжительность : 15 м.
Вид битрейта : Постоянный
Битрейт : 448 Кбит/сек
Каналы : 6 каналов
Расположение каналов : Front: L C R, Side: L R, LFE
Частота : 48,0 КГц
Битовая глубина : 16 бит
Метод сжатия : С потерями
Размер потока : 49,4 Мбайт (5%)

Меню
Свернуть

"Скриншоты"
Изображение
Изображение
Изображение
Изображение
Изображение
Изображение
Свернуть

Раздача группы:
Изображение


Последний раз редактировалось rastor 2012-10-20 19:56, всего редактировалось 1 раз.
В сети
Профиль  
 Добавлено: 2012-10-16 19:54 (спустя 7 часов)
Стаж: 7 лет 3 месяца
Сообщений: 37
Спасибо.
Не в сети
Профиль  
 Добавлено: 2012-10-20 17:04 (спустя 3 дня)
Аватара пользователя
Стаж: 5 лет 9 месяцев
Возраст: 31
Сообщений: 21
Спасибок: 2
Видео: 8653Kbps - у DVD5 не может быть такой. Тут скорее всего ~4000Kbps.
Не в сети
Профиль  
 Добавлено: 2012-10-27 16:31 (спустя 6 дней)
Стаж: 7 лет 6 месяцев
Сообщений: 1
Видео тормозит, расходится со звуком. В VLC встает напрочь минут через 5, в windows media начинает прерываться на 10-ой минуте и даже в Windows Media Home видео постоянно дергается, смотреть невозможно :(
Не в сети
Профиль  
 Добавлено: 2012-10-27 17:49 (спустя 1 час 18 минут)
Руководитель релиз-группы
Аватара пользователя
Стаж: 7 лет 5 месяцев
Возраст: 31
Сообщений: 3406
Спасибок: 46729
Лайков: 5
x Закрыто
рассинхрон
Не в сети
Профиль  
Начать новую темуОтветить на тему  [ Сообщений: 5 ] 
Вы не можете начинать темы
Вы не можете отвечать на сообщения
Вы не можете редактировать свои сообщения
Вы не можете удалять свои сообщения