Правила форума

Здесь находятся раздачи, на которых не было полного источника (сида) более месяца.
Вы можете вернуть релиз в соответствующий раздел, для этого напишите нам в специальной теме и встаньте на раздачу.
Новые релизы, повторяющие релизы в архиве, повторами не считаются.
Начать новую темуОтветить на тему  [ Сообщений: 4 ] 
Сообщения
 Добавлено: 2013-05-24 22:49
Аватара пользователя
Стаж: 7 лет 2 месяца
Сообщений: 7167
Спасибок: 81987
Лайков: 2438
Неудержимый / Bullet to the Head

Изображение


Год выпуска: 2012
Страна: США
Жанр: боевик, триллер, криминал
Продолжительность: 01:31:33
Перевод: Профессиональный (дубляж) + Оригинальная звуковая дорожка

Режиссёр: Уолтер Хилл
В ролях: Сильвестр Сталлоне, Санг Кенг, Сара Шахи, Адевале Акинойе-Агбаже, Джейсон Момоа, Кристиан Слэйтер, Джон Седа, Холт МакКэллани, Брайан Ван Холт, Вероника Розати
Описание: Киллер из Нового Орлеана объединяется с молодым полицейским из Нью-Йорка, расследуя дело, которое выводит их с мрачных задворок Нового Орлеана в светлые коридоры правительственных зданий в Вашингтоне. Необычный дуэт формируется в результате двух жестоких убийств. Герои убирают всех, кто стоит у них на пути, и готовы пожертвовать всем, чтобы отомстить.


Качество: BDRip 720p
Формат: MKV
Видео кодек: H264 (AVC)
Аудио кодек: AC3 (Dolby Digital), DTS
Видео: 1 280x688, 23.976 fps, 5 316 Кbps
Аудио #1: 48.0 KHz, 6 ch, 448 Kbps [Профессиональный (дубляж)] Звук с TS
Аудио #2: 48.0 KHz, 6 ch, 1 510 Kbps [Оригинальная звуковая дорожка]
Субтитры: Английский
Изображение
Скриншоты
Изображение

Изображение

Изображение

Изображение
Свернуть
Знаете ли Вы, что...
Режиссером фильма должен был стать Уэйн Крамер и начать съемки в феврале 2011 года. Однако из-за занятости Сильвестра Сталлоне на других проектах съемки пришлось отложить, после чего Крамер покинул проект. 11 апреля 2011 года режиссерское кресло занял Уолтер Хилл.
Изначально, на одну из главных ролей Уэй Крамер пригласил Томаса Джейна. Когда Крамер покинул проект, Джейн лично предложил Сталлоне нанять Уолтера Хилла. После того, как Хилл согласился, продюсер фильма Джоэл Силвер «выдворил» Томаса Джейна, так как считал, что в напарниках у Сильвестра Сталлоне должен быть «этнический парень».
Первый фильм Уолтера Хилла, спустя 10 лет после фильма «Обсуждению не подлежит» (2002).
Ближе к концу фильма Бономо встречает Квона в баре, и он снова пьет свой бурбон. Когда они заканчивают разговаривать, он полностью допивает содержимое своего стакана. Но когда опускает его на барную стойку, хорошо видно, что немного напитка еще осталось на дне.[/spoiler=MI]General
Unique ID : 204958601900062581652214432486558210859 (0x9A319743A4B9E87EAF72F79F4F6B1B2B)
Complete name : Неудержимый.2012.mkv
Format : Matroska
Format version : Version 2
File size : 4.49 GiB
Duration : 1h 31mn
Overall bit rate : 7 013 Kbps
Encoded date : UTC 2013-05-24 14:53:23
Writing application : mkvmerge v5.5.0 ('Healer') built on Apr 6 2012 21:43:24
Writing library : libebml v1.2.3 + libmatroska v1.3.0

Video
ID : 1
Format : AVC
Format/Info : Advanced Video Codec
Format profile : High@L4.1
Format settings, CABAC : Yes
Format settings, ReFrames : 5 frames
Codec ID : V_MPEG4/ISO/AVC
Duration : 1h 31mn
Bit rate : 5 316 Kbps
Width : 1 280 pixels
Height : 688 pixels
Display aspect ratio : 1.85:1
Frame rate : 23.976 fps
Color space : YUV
Chroma subsampling : 4:2:0
Bit depth : 8 bits
Scan type : Progressive
Bits/(Pixel*Frame) : 0.252
Stream size : 3.31 GiB (74%)
Writing library : x264 core 133 r2334 a3ac64b
Encoding settings : cabac=1 / ref=5 / deblock=1:0:0 / analyse=0x3:0x133 / me=umh / subme=8 / psy=1 / psy_rd=1.00:0.00 / mixed_ref=1 / me_range=16 / chroma_me=1 / trellis=1 / 8x8dct=1 / cqm=0 / deadzone=21,11 / fast_pskip=0 / chroma_qp_offset=-2 / threads=24 / lookahead_threads=4 / sliced_threads=0 / nr=0 / decimate=1 / interlaced=0 / bluray_compat=0 / constrained_intra=0 / bframes=3 / b_pyramid=2 / b_adapt=1 / b_bias=0 / direct=1 / weightb=1 / open_gop=0 / weightp=2 / keyint=250 / keyint_min=23 / scenecut=40 / intra_refresh=0 / rc=2pass / mbtree=0 / bitrate=5316 / ratetol=1.0 / qcomp=0.60 / qpmin=0 / qpmax=69 / qpstep=4 / cplxblur=20.0 / qblur=0.5 / ip_ratio=1.40 / pb_ratio=1.30 / aq=1:1.00
Language : English
Default : Yes
Forced : No

Audio #1
ID : 2
Format : MPEG Audio
Format version : Version 1
Format profile : Layer 3
Mode : Joint stereo
Codec ID : A_MPEG/L3
Codec ID/Hint : MP3
Duration : 1h 31mn
Bit rate mode : Constant
Bit rate : 192 Kbps
Channel(s) : 2 channels
Sampling rate : 48.0 KHz
Compression mode : Lossy
Stream size : 126 MiB (3%)
Language : Russian
Default : Yes
Forced : No

Audio #2
ID : 3
Format : DTS
Format/Info : Digital Theater Systems
Codec ID : A_DTS
Duration : 1h 31mn
Bit rate mode : Constant
Bit rate : 1 510 Kbps
Channel(s) : 6 channels
Channel positions : Front: L C R, Side: L R, LFE
Sampling rate : 48.0 KHz
Bit depth : 24 bits
Compression mode : Lossy
Stream size : 989 MiB (22%)
Title : English DTS
Language : English
Default : No
Forced : No

Text
ID : 4
Format : UTF-8
Codec ID : S_TEXT/UTF8
Codec ID/Info : UTF-8 Plain Text
Title : english
Language : English
Default : No
Forced : No

Menu
00:00:00.000 : en:00:00:00.000
00:06:32.434 : en:00:06:32.434
00:07:43.380 : en:00:07:43.380
00:11:30.440 : en:00:11:30.440
00:16:25.109 : en:00:16:25.109
00:21:54.355 : en:00:21:54.355
00:27:53.547 : en:00:27:53.547
00:30:30.078 : en:00:30:30.078
00:34:59.931 : en:00:34:59.931
00:40:39.312 : en:00:40:39.312
00:47:19.295 : en:00:47:19.295
00:56:18.375 : en:00:56:18.375
01:00:55.110 : en:01:00:55.110
01:03:45.447 : en:01:03:45.447
01:07:01.184 : en:01:07:01.184
01:09:18.571 : en:01:09:18.571
01:13:50.968 : en:01:13:50.968
01:17:32.356 : en:01:17:32.356
01:23:24.333 : en:01:23:24.333
01:26:23.011 : en:01:26:23.011


Cкрытый текст
Свернуть
Свернуть
 rotametr нравится это.
Не в сети
Профиль  
 Добавлено: 2013-05-25 21:16 (спустя 22 часа)
Аватара пользователя
Стаж: 8 лет 2 месяца
Возраст: 27
Сообщений: 45
Большое спасибо за английскую дорожку, а за сабы огромное спасибище))
Не в сети
Профиль  
 Добавлено: 2013-05-26 10:17 (спустя 13 часов)
Аватара пользователя
Стаж: 7 лет 11 месяцев
Сообщений: 994
Лайков: 73

e_s:

Большое спасибо за английскую дорожку, а за сабы огромное спасибище))
смотри не обделайся от счастья!! это же САБЫ , кудаж без них!! без них фильм не фильм!!
Не в сети
Профиль  
 Добавлено: 2013-05-26 16:30 (спустя 6 часов)
Аватара пользователя
Стаж: 5 лет 7 месяцев
Сообщений: 21
фильм то нормальный или как орешек последний? :du_ma_et:
Не в сети
Профиль  
Начать новую темуОтветить на тему  [ Сообщений: 4 ] 
Вы не можете начинать темы
Вы не можете отвечать на сообщения
Вы не можете редактировать свои сообщения
Вы не можете удалять свои сообщения