Правила форума

Здесь находятся раздачи, на которых не было полного источника (сида) более месяца.
Вы можете вернуть релиз в соответствующий раздел, для этого напишите нам в специальной теме и встаньте на раздачу.
Новые релизы, повторяющие релизы в архиве, повторами не считаются.
Начать новую темуОтветить на тему  [ Сообщений: 2 ] 
Сообщения
 Добавлено: 2013-05-27 00:02
Аватара пользователя
Стаж: 7 лет 2 месяца
Сообщений: 7167
Спасибок: 81984
Лайков: 2438
Неудержимый / Bullet to the Head

Изображение


Год выпуска: 2012
Страна: США
Жанр: боевик, триллер, криминал
Продолжительность: 01:31:33
Перевод: Профессиональный (дубляж) + Оригинальная звуковая дорожка
Субтитры: Английские

Режиссёр: Уолтер Хилл
В ролях: Сильвестр Сталлоне, Санг Кенг, Сара Шахи, Адевале Акинойе-Агбаже, Джейсон Момоа, Кристиан Слэйтер, Джон Седа, Холт МакКэллани, Брайан Ван Холт, Вероника Розати
Описание: Киллер из Нового Орлеана объединяется с молодым полицейским из Нью-Йорка, расследуя дело, которое выводит их с мрачных задворок Нового Орлеана в светлые коридоры правительственных зданий в Вашингтоне. Необычный дуэт формируется в результате двух жестоких убийств. Герои убирают всех, кто стоит у них на пути, и готовы пожертвовать всем, чтобы отомстить.


Качество: BDRip 720p
Формат: MKV
Видео кодек: MPEG-4 AVC
Аудио кодек: AC3 (Dolby Digital), DTS
Видео: 1 280x690, 23.976 fps, 6 076 Kbps
Аудио #1: 48.0 KHz, 2 ch, 192 Kbps [Профессиональный (дубляж)] Чистый звук
Аудио #2: 48.0 KHz, 6 ch, 1 510 Kbps [Оригинальная звуковая дорожка]
Субтитры: Английские
Изображение
Скриншоты
Изображение

Изображение

Изображение

Изображение
Свернуть
Знаете ли Вы, что...
Режиссером фильма должен был стать Уэйн Крамер и начать съемки в феврале 2011 года. Однако из-за занятости Сильвестра Сталлоне на других проектах съемки пришлось отложить, после чего Крамер покинул проект. 11 апреля 2011 года режиссерское кресло занял Уолтер Хилл.
Изначально, на одну из главных ролей Уэй Крамер пригласил Томаса Джейна. Когда Крамер покинул проект, Джейн лично предложил Сталлоне нанять Уолтера Хилла. После того, как Хилл согласился, продюсер фильма Джоэл Силвер «выдворил» Томаса Джейна, так как считал, что в напарниках у Сильвестра Сталлоне должен быть «этнический парень».
Первый фильм Уолтера Хилла, спустя 10 лет после фильма «Обсуждению не подлежит» (2002).
Ближе к концу фильма Бономо встречает Квона в баре, и он снова пьет свой бурбон. Когда они заканчивают разговаривать, он полностью допивает содержимое своего стакана. Но когда опускает его на барную стойку, хорошо видно, что немного напитка еще осталось на дне.
Свернуть
MI
General
Unique ID : 240067043867852243755872955545328291373 (0xB49B3B18A11495CF9AD06132C9CC0E2D)
Complete name : Неудержимый.2012.mkv
Format : Matroska
Format version : Version 2
File size : 4.98 GiB
Duration : 1h 31mn
Overall bit rate : 7 781 Kbps
Encoded date : UTC 2013-05-26 18:02:33
Writing application : mkvmerge v5.2.0 ('I can't explain') built on Dec 18 2011 18:12:03
Writing library : libebml v1.2.3 + libmatroska v1.3.0

Video
ID : 1
Format : AVC
Format/Info : Advanced Video Codec
Format profile : High@L4.1
Format settings, CABAC : Yes
Format settings, ReFrames : 9 frames
Codec ID : V_MPEG4/ISO/AVC
Duration : 1h 31mn
Bit rate : 5 924 Kbps
Width : 1 280 pixels
Height : 690 pixels
Display aspect ratio : 1.85:1
Frame rate : 23.976 fps
Color space : YUV
Chroma subsampling : 4:2:0
Bit depth : 8 bits
Scan type : Progressive
Bits/(Pixel*Frame) : 0.280
Stream size : 3.79 GiB (76%)
Title : Bullet.to.the.Head.2012.720p.BluRay.x264.DTS-HDWinG
Writing library : x264 core 132 r2323+704+51 d571b1c tMod [8-bit@4:2:0 X86_64]
Encoding settings : cabac=1 / ref=9 / deblock=1:-3:-3 / analyse=0x3:0x113 / me=umh / subme=11 / psy=1 / fade_compensate=0.00 / psy_rd=1.10:0.00 / mixed_ref=1 / me_range=32 / chroma_me=1 / trellis=2 / 8x8dct=1 / cqm=0 / deadzone=21,11 / fast_pskip=0 / chroma_qp_offset=-2 / threads=36 / lookahead_threads=5 / sliced_threads=0 / nr=0 / decimate=0 / interlaced=0 / bluray_compat=0 / constrained_intra=0 / fgo=0 / bframes=8 / b_pyramid=2 / b_adapt=2 / b_bias=0 / direct=3 / weightb=1 / open_gop=0 / weightp=2 / keyint=240 / keyint_min=24 / scenecut=40 / intra_refresh=0 / rc_lookahead=240 / rc=crf / mbtree=1 / crf=17.5000 / qcomp=0.70 / qpmin=0 / qpmax=69 / qpstep=4 / ip_ratio=1.20 / aq=4:0.80 / aq-sensitivity=10.00 / aq-factor=1.00:1.00:1.00 / aq2=0 / aq3=0
Language : English
Default : Yes
Forced : Yes

Audio #1
ID : 2
Format : AC-3
Format/Info : Audio Coding 3
Mode extension : CM (complete main)
Format settings, Endianness : Big
Codec ID : A_AC3
Duration : 1h 31mn
Bit rate mode : Constant
Bit rate : 192 Kbps
Channel(s) : 2 channels
Channel positions : Front: L R
Sampling rate : 48.0 KHz
Bit depth : 16 bits
Compression mode : Lossy
Stream size : 126 MiB (2%)
Language : Russian
Default : Yes
Forced : Yes

Audio #2
ID : 3
Format : DTS
Format/Info : Digital Theater Systems
Codec ID : A_DTS
Duration : 1h 31mn
Bit rate mode : Constant
Bit rate : 1 510 Kbps
Channel(s) : 6 channels
Channel positions : Front: L C R, Side: L R, LFE
Sampling rate : 48.0 KHz
Bit depth : 24 bits
Compression mode : Lossy
Stream size : 989 MiB (19%)
Title : DTS 5.1 @ 1510 kbps
Language : English
Default : No
Forced : No

Text
ID : 4
Format : UTF-8
Codec ID : S_TEXT/UTF8
Codec ID/Info : UTF-8 Plain Text
Language : English
Default : No
Forced : No


Свернуть
 rotametr нравится это.
Не в сети
Профиль  
 Добавлено: 2013-05-31 20:59 (спустя 4 дня)
Стаж: 5 лет 3 месяца
Сообщений: 150
Лайков: 1
Ну и бред!!!
Не в сети
Профиль  
Начать новую темуОтветить на тему  [ Сообщений: 2 ] 
Вы не можете начинать темы
Вы не можете отвечать на сообщения
Вы не можете редактировать свои сообщения
Вы не можете удалять свои сообщения