Правила форума

Здесь находятся раздачи, на которых не было полного источника (сида) более месяца.
Вы можете вернуть релиз в соответствующий раздел, для этого напишите нам в специальной теме и встаньте на раздачу.
Новые релизы, повторяющие релизы в архиве, повторами не считаются.
Начать новую темуОтветить на тему  [ Сообщений: 4 ] 
Сообщения
 Добавлено: 2011-10-06 21:45
Аватара пользователя
Стаж: 5 лет 6 месяцев
Возраст: 30
Сообщений: 353
Спасибок: 7455
Неуловимый Люк / Lucky Luke

Изображение


Год выпуска: 2009
Страна: Франция, Аргентина (Angoa-Agicoa, Canal+ [fr], Captain Movies, Ciné Cinémas, France 2 Cinéma, France 3 Cinéma, Procirep, Sofica UGC 1, UGC YM, Union Générale Cinématographique (UGC))
Слоган: «Быстрее тени»
Жанр: комедия, приключения, вестерн
Продолжительность: 01:39:07
Перевод: Профессиональный (дубляж)
Дублеры: Михаил Галустян, Андрей Фединчик, Владимир Остапчук, Андрей Саминин, Ольга Радчук + Оригинальная звуковая дорожка
Субтитры: Английские, Украинские

Режиссёр: Джеймс Хат / James Huth
Сценарист: Джеймс Хат, Соня Шиллито, Рене Госинни
Продюсер: Саид Бен Саид, Ив Мармион, Соня Шиллито
Оператор: Стефан Ле Парк
Композитор: Бруно Куле

В ролях: Мельвиль Пупо, Жан Дюжарден, Сильви Тестю, Александра Лэми, Майкл Юн, Жан-Франсуа Бальме, Даниэль Прево, Бруно Саломон, Карлос Каспар
Описание: Счастливчик Люк возвращается в свой родной город Дэйзи Таун, где в то время хозяйничают злодеи Пат Покер и Билли Зи Ки. Там он встретит свою любовь, певицу из местной таверны по имени Белль, а также столкнётся со своими давними врагами Кэлэмити Джэйн и Джесси Джеймсом.

Доп.информация: нет
Мировая премьера: 21 октября 2009
Премьера в России: 4 августа 2011, «Top Film Distribution»
Бюджет: €27 000 000
Кассовые сборы: $15 919 358

Изображение Изображение Изображение

Качество: DVD9 R5
Формат: DVD Video
Видео кодек: MPEG2
Аудио кодек: AC3 (Dolby Digital)
Видео: PAL 16:9 (720x576(0.572)) MPEG Video, 25,000 кадр/сек, 5930 Кбит/сек
Аудио #1: Russian (Dolby AC3, 6 ch) 384 Кбит/сек, 48,0 КГц [Профессиональный (дубляж)]
Аудио #2: Francais (Dolby AC3, 6 ch) 384 Кбит/сек, 48,0 КГц [Оригинальная звуковая дорожка]
Субтитры: Английские, Украинские

"DVDInfo"
Title:
Size: 5.22 Gb ( 5 473 268 KBytes ) - DVD-9
Enabled regions: 1, 2, 3, 4, 5, 6, 7, 8

VTS_01 :
Play Length: 00:00:08
Video: PAL 4:3 (720x576) VBR

VTS_02 :
Play Length: 00:00:13
Video: PAL 16:9 (720x576) VBR, Auto Pan&Scan

VTS_03 :
Play Length: 01:39:07
Video: PAL 16:9 (720x576) VBR, Auto Pan&Scan
Audio:
Russian (Dolby AC3, 6 ch)
Francais (Dolby AC3, 6 ch)
Subtitles:
Ukrainian
English

Menu Video:
PAL 4:3 (720x576) VBR
Auto Pan&Scan, Auto Letterboxed
Menu Russian Language Unit :
Root Menu
Chapter (PTT) Menu
Audio Menu
Свернуть

"MediaInfo"
Общее
Полное имя : G:\Новинки 2011\Neulovimyj.Ljuk.2009.DVD9\VIDEO_TS\VTS_03_1.VOB
Формат : MPEG-PS
Размер файла : 1024 Мбайт
Продолжительность : 20 м.
Общий поток : 6900 Кбит/сек

Видео
Идентификатор : 224 (0xE0)
Формат : MPEG Video
Версия формата : Version 2
Профиль формата : Main@Main
Параметр BVOP формата : Да
Параметр матрицы формата : По умолчанию
Продолжительность : 20 м.
Вид битрейта : Переменный
Битрейт : 5930 Кбит/сек
Максимальный битрейт : 7500 Кбит/сек
Ширина : 720 пикселей
Высота : 576 пикселей
Соотношение сторон : 16:9
Частота кадров : 25,000 кадров/сек
Стандарт вещания : PAL
Цветовое пространство : YUV
Субдискретизация насыщенности : 4:2:0
Битовая глубина : 8 бит
Тип развёртки : Чересстрочная
Порядок развёртки : Верхнее поле первое
Метод сжатия : С потерями
Бит/(Пиксели*Кадры) : 0.572
Размер потока : 880 Мбайт (86%)

Аудио #1
Идентификатор : 189 (0xBD)-128 (0x80)
Формат : AC-3
Формат/Информация : Audio Coding 3
Расширение режима : CM (complete main)
Режим смешивания : DVD-Video
Продолжительность : 20 м.
Вид битрейта : Постоянный
Битрейт : 384 Кбит/сек
Каналы : 6 каналов
Расположение каналов : Front: L C R, Side: L R, LFE
Частота : 48,0 КГц
Битовая глубина : 16 бит
Метод сжатия : С потерями
Размер потока : 57,0 Мбайт (6%)

Аудио #2
Идентификатор : 189 (0xBD)-129 (0x81)
Формат : AC-3
Формат/Информация : Audio Coding 3
Расширение режима : CM (complete main)
Режим смешивания : DVD-Video
Продолжительность : 20 м.
Вид битрейта : Постоянный
Битрейт : 448 Кбит/сек
Каналы : 6 каналов
Расположение каналов : Front: L C R, Side: L R, LFE
Частота : 48,0 КГц
Битовая глубина : 16 бит
Метод сжатия : С потерями
Размер потока : 66,5 Мбайт (6%)

Текст #1
Идентификатор : 189 (0xBD)-32 (0x20)
Формат : RLE
Формат/Информация : Run-length encoding
Режим смешивания : DVD-Video

Текст #2
Идентификатор : 189 (0xBD)-33 (0x21)
Формат : RLE
Формат/Информация : Run-length encoding
Режим смешивания : DVD-Video

Свернуть

Скриншоты
Скриншоты меню
Изображение
Изображение
Изображение
Свернуть
Изображение
Изображение
Изображение
Изображение
Изображение
Изображение
Изображение
Изображение
Свернуть

Изображение Изображение


Последний раз редактировалось voovaz 2011-10-06 21:49, всего редактировалось 1 раз.
Не в сети
Профиль  
 Добавлено: 2011-10-06 21:48 (спустя 2 минуты)
Аватара пользователя
Стаж: 8 лет 3 месяца
Возраст: 43
Сообщений: 3290
Спасибок: 21012
Лайков: 3
Новинка
_________________
Изображение
Не в сети
Профиль  
 Добавлено: 2011-10-07 06:20 (спустя 8 часов)
Аватара пользователя
Стаж: 7 лет 2 месяца
Сообщений: 7167
Спасибок: 82016
Лайков: 2438
Неуловимый потому-что на фиг некому ненужен :-D :-D
Не в сети
Профиль  
 Добавлено: 2011-10-13 08:24 (спустя 6 дней)
Аватара пользователя
Стаж: 7 лет 3 месяца
Возраст: 34
Сообщений: 127
Ну так для детей сказка!!
Не в сети
Профиль  
Начать новую темуОтветить на тему  [ Сообщений: 4 ] 
Вы не можете начинать темы
Вы не можете отвечать на сообщения
Вы не можете редактировать свои сообщения
Вы не можете удалять свои сообщения