Правила форума

Здесь находятся раздачи, на которых не было полного источника (сида) более месяца.
Вы можете вернуть релиз в соответствующий раздел, для этого напишите нам в специальной теме и встаньте на раздачу.
Новые релизы, повторяющие релизы в архиве, повторами не считаются.
Начать новую темуОтветить на тему  [ Сообщений: 2 ] 
Сообщения
 Добавлено: 2014-03-27 15:08
DVD Release Group
Аватара пользователя
Стаж: 7 лет 1 месяц
Сообщений: 3549
Спасибок: 247076
Лайков: 1018
Невероятная жизнь Уолтера Митти

The Secret Life of Walter Mitty


Изображение


Год выпуска: 2013
Страна: США
Жанр: Фэнтези, драма, комедия, приключения
Продолжительность: 01:54:51
Перевод: Профессиональный (полное дублирование)
Субтитры: Английские
Режиссер: Бен Стиллер
В ролях: Бен Стиллер,Кристен Уиг, Джон Дэйли, Кэтрин Хан, Теренс Берни Хайнс, Адам Скотт, Пол Фицджералд, Грэйс Рекс, Алекс Анфанджер, Аманда Нафтон
Описание: Кто сказал, что в сердце маленького человека не могут жить великие мечты? Даже скромному и незаметному служащему хочется иногда совершить пусть безумные, но геройские поступки, поверить в свою силу и мужество. Почему всех спасать должны исключительно супермены?
Изображение Изображение
Качество: BDRip 720p
Формат: MKV
Видео кодек: H.264
Аудио кодек: AC3, DTS
Видео: 1920x800 23.98fps 8413kbps
Аудио:
Audio Rus: AC3 48kHz 6ch 384kbps
Audio Eng: DTS 48kHz 6ch 1510kbps
"MediaInfo"
Формат : Matroska
Версия формата : Version 4 / Version 2
Размер файла : 8,25 Гбайт
Продолжительность : 1 ч. 54 м.
Общий поток : 10,3 Мбит/сек
Дата кодирования : UTC 2014-03-27 11:13:42
Программа кодирования : mkvmerge v6.7.0 ('Back to the Ground') 32bit built on Jan 8 2014 15:03:17
Библиотека кодирования : libebml v1.3.0 + libmatroska v1.4.1

Видео
Идентификатор : 1
Формат : AVC
Формат/Информация : Advanced Video Codec
Профиль формата : High@L4.1
Параметр CABAC формата : Да
Параметр ReFrames формата : 5 кадров
Идентификатор кодека : V_MPEG4/ISO/AVC
Продолжительность : 1 ч. 54 м.
Битрейт : 8413 Кбит/сек
Ширина : 1920 пикселей
Высота : 800 пикселей
Соотношение сторон : 2,40:1
Частота кадров : 23,976 кадра/сек
Цветовое пространство : YUV
Субдискретизация насыщенности : 4:2:0
Битовая глубина : 8 бит
Тип развёртки : Прогрессивная
Бит/(Пиксели*Кадры) : 0.228
Размер потока : 6,57 Гбайт (80%)
Библиотека кодирования : x264 core 140 r2377 1ca7bb9
Настройки программы : cabac=1 / ref=5 / deblock=1:0:0 / analyse=0x3:0x133 / me=umh / subme=7 / psy=1 / psy_rd=1.00:0.00 / mixed_ref=1 / me_range=16 / chroma_me=1 / trellis=1 / 8x8dct=1 / cqm=0 / deadzone=21,11 / fast_pskip=0 / chroma_qp_offset=-2 / threads=36 / lookahead_threads=6 / sliced_threads=0 / nr=0 / decimate=1 / interlaced=0 / bluray_compat=0 / constrained_intra=0 / bframes=3 / b_pyramid=2 / b_adapt=1 / b_bias=0 / direct=1 / weightb=1 / open_gop=0 / weightp=2 / keyint=250 / keyint_min=23 / scenecut=40 / intra_refresh=0 / rc_lookahead=40 / rc=2pass / mbtree=1 / bitrate=8413 / ratetol=1.0 / qcomp=0.60 / qpmin=0 / qpmax=69 / qpstep=4 / cplxblur=20.0 / qblur=0.5 / ip_ratio=1.40 / aq=1:1.00
Язык : English
Default : Да
Forced : Да

Аудио #1
Идентификатор : 2
Формат : AC-3
Формат/Информация : Audio Coding 3
Расширение режима : CM (complete main)
Идентификатор кодека : A_AC3
Продолжительность : 1 ч. 54 м.
Вид битрейта : Постоянный
Битрейт : 384 Кбит/сек
Каналы : 6 каналов
Расположение каналов : Front: L C R, Side: L R, LFE
Частота : 48,0 КГц
Битовая глубина : 16 бит
Метод сжатия : С потерями
Размер потока : 315 Мбайт (4%)
Язык : Russian
Default : Да
Forced : Да

Аудио #2
Идентификатор : 3
Формат : DTS
Формат/Информация : Digital Theater Systems
Идентификатор кодека : A_DTS
Продолжительность : 1 ч. 54 м.
Вид битрейта : Постоянный
Битрейт : 1510 Кбит/сек
Каналы : 6 каналов
Расположение каналов : Front: L C R, Side: L R, LFE
Частота : 48,0 КГц
Битовая глубина : 24 бит
Метод сжатия : С потерями
Размер потока : 1,21 Гбайт (15%)
Язык : English
Default : Нет
Forced : Нет

Текст #1
Идентификатор : 4
Формат : UTF-8
Идентификатор кодека : S_TEXT/UTF8
Идентификатор кодека/Информация : UTF-8 Plain Text
Заголовок : Forced
Язык : English
Default : Нет
Forced : Нет

Текст #2
Идентификатор : 5
Формат : UTF-8
Идентификатор кодека : S_TEXT/UTF8
Идентификатор кодека/Информация : UTF-8 Plain Text
Заголовок : SDH
Язык : English
Default : Нет
Forced : Нет

Меню
00:00:00.000 : en:00:00:00.000
00:02:51.004 : en:00:02:51.004
00:05:39.756 : en:00:05:39.756
00:08:33.972 : en:00:08:33.972
00:10:54.571 : en:00:10:54.571
00:13:52.248 : en:00:13:52.248
00:17:48.234 : en:00:17:48.234
00:20:39.655 : en:00:20:39.655
00:23:33.245 : en:00:23:33.245
00:26:31.381 : en:00:26:31.381
00:30:08.265 : en:00:30:08.265
00:32:19.521 : en:00:32:19.521
00:35:01.057 : en:00:35:01.057
00:38:18.838 : en:00:38:18.838
00:40:31.846 : en:00:40:31.846
00:44:51.480 : en:00:44:51.480
00:48:13.891 : en:00:48:13.891
00:51:29.670 : en:00:51:29.670
00:54:36.273 : en:00:54:36.273
00:57:28.403 : en:00:57:28.403
01:00:02.140 : en:01:00:02.140
01:03:10.620 : en:01:03:10.620
01:05:28.383 : en:01:05:28.383
01:09:27.288 : en:01:09:27.288
01:11:23.029 : en:01:11:23.029
01:14:06.651 : en:01:14:06.651
01:18:31.749 : en:01:18:31.749
01:22:50.883 : en:01:22:50.883
01:28:52.536 : en:01:28:52.536
01:30:24.461 : en:01:30:24.461
01:33:54.671 : en:01:33:54.671
01:35:39.484 : en:01:35:39.484
01:38:24.357 : en:01:38:24.357
01:39:48.274 : en:01:39:48.274
01:43:01.675 : en:01:43:01.675
01:44:28.262 : en:01:44:28.262
Свернуть

"Скриншоты"
Изображение
Изображение
Изображение
Свернуть
Не в сети
Профиль  
 Добавлено: 2014-03-27 15:14 (спустя 6 минут)
Аватара пользователя
Стаж: 9 лет 1 месяц
Сообщений: 7981
Спасибок: 122207
Лайков: 1191
Сцена.
при появлении лучшего будет поглощен
Не в сети
Профиль  
Начать новую темуОтветить на тему  [ Сообщений: 2 ] 
Вы не можете начинать темы
Вы не можете отвечать на сообщения
Вы не можете редактировать свои сообщения
Вы не можете удалять свои сообщения