Правила форума

Здесь находятся раздачи, на которых не было полного источника (сида) более месяца.
Вы можете вернуть релиз в соответствующий раздел, для этого напишите нам в специальной теме и встаньте на раздачу.
Новые релизы, повторяющие релизы в архиве, повторами не считаются.
Начать новую темуОтветить на тему  [ 1 сообщение ] 
Сообщения
 Добавлено: 2012-09-18 17:45
Аватара пользователя
Стаж: 7 лет 4 месяца
Возраст: 21
Сообщений: 419
Спасибок: 12708
Лайков: 18
Изображение


The Uninvited
Незваные
«По-настоящему страшный фильм с шокирующим финалом»



Год выпуска: 2009
Страна: СШАИзображение, Канада Изображение
Жанр: ужасы, триллер, драма, детектив
Продолжительность: 01:27:16
Перевод: Профессиональный (полное дублирование)
Субтитры: Русские, Английские

Режиссер: Чарли Гард, Томас Гард
Сценарий: Крэйг Розенберг, Даг Миро, Карло Бернард
Продюсер: Рой Ли, Лори МакДональд, Уолтер Ф. Паркс
Оператор: Дэн Лэндин
Композитор: Кристофер Янг
В ролях: Эмили Браунинг, Ариэль Кеббел, Дэвид Стрэтэйрн, Элизабет Бэнкс, Майя Массар, Кевин МакНалти, Джесси Мосс, Дин Пол Гибсон, Дон С. Дэвис, Лекс Бёрнэм

Описание: Анна, после смерти матери, попадает в клинику. После лечения она возвращается домой и узнает, что отец встречается с Рейчел, медсестрой, которая когда-то ухаживала за ее умирающей матерью. Смятение Анны сменяется ужасом, когда ее посещает призрак матери и сообщает о злобных намерениях медсестры. Вместе со своей сестрой она начинает расследовать странные обстоятельства гибели их матери, и вскоре их противостояние с незваной гостьей достигает апогея…


Изображение

Мировая премьера: 30 января 2009
Премьера РФ: 30 апреля 2009, «Централ Партнершип»
Релиз на DVD: 26 мая 2009, «Юниверсал Пикчерс Рус»
Релиз на Blu-Ray 1 сентября 2009, «Юниверсал Пикчерс Рус»

Качество: BDRip 1080p (исходник Blu-ray Disc)
Формат: Matroska
Видео: 1920x1080 (16:9), 23.976 fps, 8171 kbps
Аудио:
Аудио #1:Изображение AC-3, 6 ch, 640 kbps
Аудио #2:Изображение AC-3, 6 ch, 640 kbps



Изображение

Доп. информация:
Первоначально фильм, как и оригинал, носил название «История двух сестер».

Фильм стал режиссёрским кинодебютом для братьев Чарли и Томаса Гард, до этого снявших большое количество рекламных роликов для крупных компаний и несколько короткометражек.

По сценарию героине Эмили Браунинг должно было быть 14-15 лет, но на момент съёмок актрисе было уже за двадцать.
Эмили Браунинг первоначально пробовалась на роль Алекс.

Поскольку разница в росте между двумя актрисами оказалась минимальной, на съёмках при работе с камерами были использованы все возможные трюки и уловки, чтобы Элизабет Бэнкс на экране выглядела значительно выше Эмили Браунинг.

Свернуть
MediaInfo:
Общее
Уникальный идентификатор : 241308890135445074725533482548607117834 (0xB58A66D82978B6D883DC3532490CEA0A)
Полное имя : The.Uninvited.2009.BDRip.1080p.Rus.Eng.mkv
Формат : Matroska
Версия формата : Version 2
Размер файла : 5,76 Гбайт
Продолжительность : 1 ч. 27 м.
Общий поток : 9445 Кбит/сек
Название фильма : Незваные / The Uninvited (2009)
Дата кодирования : UTC 2012-09-18 07:24:51
Программа кодирования : mkvmerge v5.8.0 ('No Sleep / Pillow') built on Sep 2 2012 15:37:04
Библиотека кодирования : libebml v1.2.3 + libmatroska v1.3.0

Видео
Идентификатор : 1
Формат : AVC
Формат/Информация : Advanced Video Codec
Профиль формата : High@L4.1
Параметр CABAC формата : Да
Параметр ReFrames формата : 4 кадра
Идентификатор кодека : V_MPEG4/ISO/AVC
Продолжительность : 1 ч. 27 м.
Битрейт : 8171 Кбит/сек
Ширина : 1920 пикселей
Высота : 1080 пикселей
Соотношение сторон : 16:9
Частота кадров : 23,976 кадра/сек
Цветовое пространство : YUV
Субдискретизация насыщенности : 4:2:0
Битовая глубина : 8 бит
Тип развёртки : Прогрессивная
Бит/(Пиксели*Кадры) : 0.164
Размер потока : 4,86 Гбайт (84%)
Заголовок : Release by AlexKa
Библиотека кодирования : x264 core 125 r2208 d9d2288
Настройки программы : cabac=1 / ref=4 / deblock=1:-3:-3 / analyse=0x3:0x133 / me=umh / subme=10 / psy=1 / psy_rd=1.00:0.10 / mixed_ref=1 / me_range=32 / chroma_me=1 / trellis=2 / 8x8dct=1 / cqm=0 / deadzone=21,11 / fast_pskip=0 / chroma_qp_offset=-3 / threads=12 / lookahead_threads=2 / sliced_threads=0 / nr=0 / decimate=0 / interlaced=0 / bluray_compat=0 / constrained_intra=0 / bframes=5 / b_pyramid=2 / b_adapt=2 / b_bias=0 / direct=3 / weightb=1 / open_gop=0 / weightp=2 / keyint=240 / keyint_min=23 / scenecut=40 / intra_refresh=0 / rc=2pass / mbtree=0 / bitrate=8171 / ratetol=1.0 / qcomp=0.60 / qpmin=0 / qpmax=69 / qpstep=4 / cplxblur=20.0 / qblur=0.5 / ip_ratio=1.40 / pb_ratio=1.30 / aq=1:0.80
Язык : English

Аудио #1
Идентификатор : 2
Формат : AC-3
Формат/Информация : Audio Coding 3
Расширение режима : CM (complete main)
Идентификатор кодека : A_AC3
Продолжительность : 1 ч. 27 м.
Вид битрейта : Постоянный
Битрейт : 640 Кбит/сек
Каналы : 6 каналов
Расположение каналов : Front: L C R, Side: L R, LFE
Частота : 48,0 КГц
Битовая глубина : 16 бит
Метод сжатия : С потерями
Размер потока : 399 Мбайт (7%)
Заголовок : Rus
Язык : Russian

Аудио #2
Идентификатор : 3
Формат : AC-3
Формат/Информация : Audio Coding 3
Расширение режима : CM (complete main)
Идентификатор кодека : A_AC3
Продолжительность : 1 ч. 27 м.
Вид битрейта : Постоянный
Битрейт : 640 Кбит/сек
Каналы : 6 каналов
Расположение каналов : Front: L C R, Side: L R, LFE
Частота : 48,0 КГц
Битовая глубина : 16 бит
Метод сжатия : С потерями
Размер потока : 399 Мбайт (7%)
Заголовок : Eng
Язык : English

Текст #1
Идентификатор : 4
Формат : UTF-8
Идентификатор кодека : S_TEXT/UTF8
Идентификатор кодека/Информация : UTF-8 Plain Text
Заголовок : Rus
Язык : Russian

Текст #2
Идентификатор : 5
Формат : UTF-8
Идентификатор кодека : S_TEXT/UTF8
Идентификатор кодека/Информация : UTF-8 Plain Text
Заголовок : Eng
Язык : English

Меню
00:00:00.000 : :Chapter 01
00:06:48.491 : :Chapter 02
00:11:23.891 : :Chapter 03
00:15:41.273 : :Chapter 04
00:21:41.174 : :Chapter 05
00:26:11.403 : :Chapter 06
00:30:11.768 : :Chapter 07
00:38:12.498 : :Chapter 08
00:45:52.916 : :Chapter 09
00:50:54.217 : :Chapter 10
00:57:32.574 : :Chapter 11
01:06:09.006 : :Chapter 12
01:12:09.450 : :Chapter 13
01:19:41.485 : :Chapter 14
01:22:28.985 : :Chapter 15
01:27:15.980 : :Chapter 16
Свернуть
Скриншоты:

Изображение
Изображение
Изображение
Свернуть
Не в сети
Профиль  
Начать новую темуОтветить на тему  [ 1 сообщение ] 
Вы не можете начинать темы
Вы не можете отвечать на сообщения
Вы не можете редактировать свои сообщения
Вы не можете удалять свои сообщения