Правила форума

Здесь находятся раздачи, на которых не было полного источника (сида) более месяца.
Вы можете вернуть релиз в соответствующий раздел, для этого напишите нам в специальной теме и встаньте на раздачу.
Новые релизы, повторяющие релизы в архиве, повторами не считаются.
Начать новую темуОтветить на тему  [ Сообщений: 4 ] 
Сообщения
 Добавлено: 2011-11-16 16:01
Аватара пользователя
Стаж: 7 лет 2 месяца
Сообщений: 7167
Спасибок: 82015
Лайков: 2438
Ниндзя из Беверли Хиллз

Beverly Hills Ninja

Изображение


Год выпуска: 1996
Страна: Изображение США
Слоган: «He put's the Mortal back in Kombat»
Жанр: Комедия, боевик
Продолжительность: 01:28:39
Перевод: Профессиональный (многоголосый закадровый)

Режиссёр: Деннис Дуган
В ролях: Крис Фарли, Николлетт Шеридан, Натаниэль Паркер, Сун-Тек Ох, Крис Рок, Робин Шу, Кит Кук Хирабаяси, Франсуа Чау, Дэйл Исимото, Да Минг Чен, Берт Булос
Описание: Ниндзя — таинственный, пугающий и очень хитрый воин тьмы, который ничего не боится и не поддается контролю. Таким хотел видеть своего приемного сына наставник ниндзя, случайно подобрав младенца в лесу. И хотя из него и вырос толстый болван, он все равно должен стать воином и выполнить миссию ниндзя — вызволить из беды голливудскую красотку.

Но здесь, в Беверли Хиллз, ему приходится столкнуться с настоящими убийцами, которые знают тайны кунг-фу получше его, и сразиться с ними, как бы это смешно ни выглядело при его умении, а главное, весе. А что их этого вышло — Вы узнаете, посмотрев до конца фильм Ниндзя из Беверли Хиллз — приключения толстого неумехи, вообразившего себя Великим Белым Ниндзя из древней легенды.

Качество: HDTV
Формат: MKV
Видео кодек: H264
Аудио кодек: AC3
Видео: 1 280x720, 23,976 fps, 4 910 kbps
Аудио #1: 48 Hz, 2ch, 192kbps [Профессиональный (многоголосый закадровый)] Видеосервис
Аудио #2: 48 Hz, 2ch, 192kbps [Профессиональный (многоголосый закадровый)] РТР
Аудио #3: 48 Hz, 2ch, 192kbps [Авторский одноголосый (Ю.Живов)]
Аудио #4: 48 Hz; 2ch, 384kbps [Оригинальная звуковая дорожка]
Субтитры: Английские
Изображение
Изображение

Скриншоты
Изображение
Изображение
Изображение
Изображение
Изображение
Изображение
Изображение
Изображение
Изображение
Изображение
Изображение
Свернуть
Знаете ли Вы, что...
Сколько людей знают о фильмах про ниндзя? Для меня единственным знакомым и интересным является «Американский ниндзя», у которого есть последующие интересные части, далее «Ниндзя убийца», хоть я этот фильм не смотрел, но все же решил привести его в пример, потому как он тоже связан с данной тематикой. Ну и наконец, фильм «Ниндзя из Беверли-Хиллз». Фильм, который, среди всех на него похожих, является единственным комедийным фильмом, хоть и не многим известным.

Сюжет фильма, довольно простенький, но как правило, большинство фильмов, комедийного жанра, которые были произведены в 80-ых и 90-ых годах, и которые имеют простой сюжет, приходятся, очень забавными и удачными, и данный фильм один из них.

В фильме рассказывается об одном парне, которого зовут Хару. Хару — человек европейской внешности, но выращенный кланом ниндзя в Японии. Ниндзя из Хару конечно не самый лучший и с ним постоянно приключаются различные неприятности. Но вот, однажды к нему приходит одна прекрасная девушка, которая ему сразу понравилась. Она предлагает ему одно опасное задание, на которое он естественно соглашается. Так что с этого момента — в фильме все интересное и очень смешное и начинается.

Главную роль в фильме исполняет актер по имени Крис Фарли. Он прекрасно подошел для этой роли и отлично смог сыграть своего забавного персонажа, при виде которого, на лице, сразу же, появлялась улыбка. И смотря на него, в этом фильме, можно было понять, что он, является забавным, обаятельным и просто хорошим человеком. И к сожалению, этот актер ушел из этой жизни слишком рано… А всему виной были опять же все эти чертовы наркотики. Ведь сколько по-настоящему талантливых и замечательных актеров, ушли из жизни именно из-за них? Как актеров, так и музыкантов, ушло много. Ривер Феникс, Хит Леджер, Крис Фарли… Все они были в действительности прекрасными актерами, которых к сожалению сгубили наркотики…

В самом фильме можно было увидеть актера Робина Шу, который исполняет роль «брата» Хару, и который постоянно приглядывает за ним, из-за того что, Хару не может обойтись без приключений. Этот актер, во многом наверное известен по фильму «Смертельная битва», в котором он сыграл персонажа «Лю Канга». В общем, в фильме «Ниндзя из Беверли-Хиллз», он сыграл довольно хорошо. Хорошо, в плане драк, которые выдались довольно зрелищными.

А вот режиссером этого фильма является Дэннис Дуган, у которого, хорошо выходят комедийные фильмы, к примеру взять фильм «Трудный ребенок» или же «Счастливчик Гилмор». Так что, сделать хорошую комедию, он умеет.

В общем, фильм «Ниндзя из Беверли-Хиллз» — отличная комедия для семейного просмотра. Хорошая, простенькая, добрая и забавная, с обаятельным и смешным актером в главной роли, с хорошей музыкой из середины 90-ых, которую, многие любят слушать до сих пор. И данный фильм, конечно приятно бывает посмотреть, расслабиться, и от души посмеяться.
Свернуть
MediaInfo
General
Unique ID : 195612364276870510447371617279386396263 (0x9329922C180FBCBDA5003B3B6A952667)
Complete name : Beverly.Hills.Ninja.1997.720p.HDTV.Rus.Eng.mkv
Format : Matroska
Format version : Version 1
File size : 3.64 GiB
Duration : 1h 28mn
Overall bit rate : 5 870 Kbps
Encoded date : UTC 2010-06-30 03:28:49
Writing application : mkvmerge v2.4.0 ('Fumbling Towards Ecstasy') built on Oct 11 2008 20:13:15
Writing library : libebml v0.7.7 + libmatroska v0.8.1

Video
ID : 1
Format : AVC
Format/Info : Advanced Video Codec
Format profile : High@L4.1
Format settings, CABAC : Yes
Format settings, ReFrames : 9 frames
Codec ID : V_MPEG4/ISO/AVC
Duration : 1h 28mn
Bit rate : 4 910 Kbps
Width : 1 280 pixels
Height : 720 pixels
Display aspect ratio : 16:9
Frame rate : 23.976 fps
Color space : YUV
Chroma subsampling : 4:2:0
Bit depth : 8 bits
Scan type : Progressive
Bits/(Pixel*Frame) : 0.222
Stream size : 2.97 GiB (82%)
Writing library : x264 core 98 r1649 20cbe10
Encoding settings : cabac=1 / ref=9 / deblock=1:-2:-2 / analyse=0x3:0x133 / me=umh / subme=10 / psy=1 / psy_rd=1.00:0.00 / mixed_ref=1 / me_range=24 / chroma_me=1 / trellis=2 / 8x8dct=1 / cqm=0 / deadzone=21,11 / fast_pskip=1 / chroma_qp_offset=-2 / threads=6 / sliced_threads=0 / nr=0 / decimate=1 / interlaced=0 / constrained_intra=0 / bframes=6 / b_pyramid=2 / b_adapt=2 / b_bias=0 / direct=3 / weightb=1 / weightp=2 / keyint=250 / keyint_min=25 / scenecut=40 / intra_refresh=0 / rc_lookahead=40 / rc=2pass / mbtree=1 / bitrate=4910 / ratetol=1.0 / qcomp=0.60 / qpmin=10 / qpmax=51 / qpstep=4 / cplxblur=20.0 / qblur=0.5 / ip_ratio=1.40 / aq=1:1.00
Language : English

Audio #1
ID : 2
Format : AC-3
Format/Info : Audio Coding 3
Mode extension : CM (complete main)
Codec ID : A_AC3
Duration : 1h 28mn
Bit rate mode : Constant
Bit rate : 192 Kbps
Channel(s) : 2 channels
Channel positions : Front: L R
Sampling rate : 48.0 KHz
Bit depth : 16 bits
Compression mode : Lossy
Stream size : 122 MiB (3%)
Title : Videoservis
Language : Russian

Audio #2
ID : 3
Format : AC-3
Format/Info : Audio Coding 3
Mode extension : CM (complete main)
Codec ID : A_AC3
Duration : 1h 28mn
Bit rate mode : Constant
Bit rate : 192 Kbps
Channel(s) : 2 channels
Channel positions : Front: L R
Sampling rate : 48.0 KHz
Bit depth : 16 bits
Compression mode : Lossy
Stream size : 122 MiB (3%)
Title : RTR
Language : Russian

Audio #3
ID : 4
Format : AC-3
Format/Info : Audio Coding 3
Mode extension : CM (complete main)
Codec ID : A_AC3
Duration : 1h 28mn
Bit rate mode : Constant
Bit rate : 192 Kbps
Channel(s) : 2 channels
Channel positions : Front: L R
Sampling rate : 48.0 KHz
Bit depth : 16 bits
Compression mode : Lossy
Stream size : 122 MiB (3%)
Title : Zjivov
Language : Russian

Audio #4
ID : 5
Format : AC-3
Format/Info : Audio Coding 3
Mode extension : CM (complete main)
Codec ID : A_AC3
Duration : 1h 28mn
Bit rate mode : Constant
Bit rate : 384 Kbps
Channel(s) : 2 channels
Channel positions : Front: L R
Sampling rate : 48.0 KHz
Bit depth : 16 bits
Compression mode : Lossy
Delay relative to video : 32ms
Stream size : 244 MiB (7%)
Title : Eng
Language : English

Text
ID : 6
Format : ASS
Codec ID : S_TEXT/ASS
Codec ID/Info : Advanced Sub Station Alpha
Compression mode : Lossless
Title : Eng
Language : English
Свернуть


Последний раз редактировалось di-ys1 2012-03-27 08:34, всего редактировалось 2 раз(а).
 rotametr нравится это.
Не в сети
Профиль  
 Добавлено: 2011-11-17 07:32 (спустя 15 часов)
Аватара пользователя
Стаж: 8 лет 3 месяца
Возраст: 43
Сообщений: 3290
Спасибок: 21012
Лайков: 3
di-ys1
Внимание. Для HD и HQRip-ов необходимы скриншоты в формате PNG, для остальных форматов PNG так же рекомендуется.
[Инструкция] Как сделать скриншоты с видео
[Инструкция] Куда и как залить скриншоты
Исправьте пожалуйста
Как все исправите, то сообщите пожалуйста в ЛС мне или любому модератору видео. Обязательно со ссылкой на релиз :)
_________________
Изображение
Не в сети
Профиль  
 Добавлено: 2011-11-17 13:21 (спустя 5 часов)
Аватара пользователя
Стаж: 7 лет 2 месяца
Сообщений: 7167
Спасибок: 82015
Лайков: 2438
Всё исправил.
Не в сети
Профиль  
 Добавлено: 2011-11-17 14:11 (спустя 49 минут)
Аватара пользователя
Стаж: 8 лет 3 месяца
Возраст: 43
Сообщений: 3290
Спасибок: 21012
Лайков: 3
Спасибо :)
_________________
Изображение
Не в сети
Профиль  
Начать новую темуОтветить на тему  [ Сообщений: 4 ] 
Вы не можете начинать темы
Вы не можете отвечать на сообщения
Вы не можете редактировать свои сообщения
Вы не можете удалять свои сообщения