Правила форума

Здесь находятся раздачи, на которых не было полного источника (сида) более месяца.
Вы можете вернуть релиз в соответствующий раздел, для этого напишите нам в специальной теме и встаньте на раздачу.
Новые релизы, повторяющие релизы в архиве, повторами не считаются.
Начать новую темуОтветить на тему  [ Сообщений: 2 ] 
Сообщения
 Добавлено: 2011-11-27 11:40
Книголюб
Аватара пользователя
Стаж: 7 лет 2 месяца
Сообщений: 2823
Спасибок: 48826
Лайков: 73
Ночь страха
Fright Night
Изображение


Год выпуска: 2011
Страна: США, Индия
Слоган: «Сумерки кончились. Рассвет не скоро.»
Жанр: ужасы, триллер, комедия
Продолжительность: 01:45:57
Перевод: Профессиональный (дубляж) [звук с TS]

Субтитры: Английские

Режиссёр: Крэйг Гиллеспи
В ролях: Колин Фаррелл, Антон Ельчин, Тони Коллетт, Дэвид Теннант, Имоджен Путс, Кристофер Минц-Плассе, Дэйв Франко, Рейд Юинг, Уилл Дентон, Сандра Вергара
Описание: Выпускник школы Чарли Брюстер находится на пике своей ученической карьеры: он популярен среди сверстников и встречается с самой очаровательной девушкой во всей школе. Он становится настолько крут, что начинает избегать своего когда-то лучшего друга Эда. Неприятности для Чарли начинаются, когда по соседству прописывается Джерри.

На первый взгляд он кажется хорошим парнем, но все же что-то с ним не так, хотя никто этого не замечает, даже мать Чарли. После анализа странного поведения соседа Чарли приходит к ужасному, но, увы, единственному верному заключению: под лживой маской Джерри скрывается кровожадный вампир, который сделал его район своими охотничьими угодьями.

Не в силах убедить кого бы то ни было в своей правоте, Чарли обращается за помощью и советом к популярному иллюзионисту из Лас-Вегаса Питеру Винсенту, рассчитывая, что кудесник поможет ему избавиться от монстра.
Рейтинг MPAA: Рейтинг R (Подростки до 17 лет допускаются на фильм только в сопровождении одного из родителей)
Мировая премьера: 14 августа 2011
Премьера в России: 22 сентября 2011, «WDSSPR»
Изображение 6.696 4 054

Качество: BDRip 720p
Формат: MKV
Видео кодек: H264
Видео: 1280x720 23.98fps 4394 Kbps 0.199Bits/Pixel
Аудио #1: Russian: MP3, 128 Kbps, 2 ch
Аудио #2: Englih: DTS, 1510 Kbps, 6 ch
Субтитры: Английские

MediaInfo
General
Unique ID : 250001104629558986208120134111819613208 (0xBC14761B44EC2A44AB2FA6D8FFEA4418)
Complete name : F:\Fright.Night.mkv
Format : Matroska
File size : 4.47 GiB
Duration : 1h 45mn
Overall bit rate : 6 033 Kbps
Movie name : -=R.G.Bee-Media=-
Encoded date : UTC 2011-11-26 04:30:40
Writing application : mkvmerge v4.0.0 ('The Stars were mine') сборка от Jun 6 2010 16:18:42
Writing library : libebml v1.0.0 + libmatroska v1.0.0

Video
ID : 1
Format : AVC
Format/Info : Advanced Video Codec
Format profile : High@L4.1
Format settings, CABAC : Yes
Format settings, ReFrames : 5 frames
Format settings, GOP : M=4, N=48
Codec ID : V_MPEG4/ISO/AVC
Duration : 1h 45mn
Bit rate : 4 394 Kbps
Width : 1 280 pixels
Height : 720 pixels
Display aspect ratio : 16:9
Frame rate : 23.976 fps
Color space : YUV
Chroma subsampling : 4:2:0
Bit depth : 8 bits
Scan type : Progressive
Bits/(Pixel*Frame) : 0.199
Stream size : 3.16 GiB (71%)
Writing library : x264 core 119 r2106 07efeb4
Encoding settings : cabac=1 / ref=5 / deblock=1:0:0 / analyse=0x3:0x113 / me=umh / subme=8 / psy=1 / psy_rd=1.00:0.00 / mixed_ref=1 / me_range=16 / chroma_me=1 / trellis=1 / 8x8dct=1 / cqm=0 / deadzone=21,11 / fast_pskip=1 / chroma_qp_offset=-2 / threads=12 / sliced_threads=0 / nr=0 / decimate=1 / interlaced=0 / bluray_compat=0 / constrained_intra=0 / bframes=3 / b_pyramid=2 / b_adapt=2 / b_bias=0 / direct=3 / weightb=1 / open_gop=0 / weightp=2 / keyint=240 / keyint_min=24 / scenecut=40 / intra_refresh=0 / rc_lookahead=50 / rc=2pass / mbtree=1 / bitrate=4394 / ratetol=1.0 / qcomp=0.60 / qpmin=0 / qpmax=69 / qpstep=4 / cplxblur=20.0 / qblur=0.5 / ip_ratio=1.40 / aq=1:1.00
Language : English

Audio #1
ID : 2
Format : MPEG Audio
Format version : Version 1
Format profile : Layer 3
Mode : Joint stereo
Mode extension : MS Stereo
Codec ID : A_MPEG/L3
Codec ID/Hint : MP3
Duration : 1h 45mn
Bit rate mode : Constant
Bit rate : 128 Kbps
Channel(s) : 2 channels
Sampling rate : 44.1 KHz
Compression mode : Lossy
Delay relative to video : 2s 700ms
Stream size : 97.0 MiB (2%)
Title : Dt
Language : Russian

Audio #2
ID : 3
Format : DTS
Format/Info : Digital Theater Systems
Codec ID : A_DTS
Duration : 1h 45mn
Bit rate mode : Constant
Bit rate : 1 510 Kbps
Channel(s) : 6 channels
Channel positions : Front: L C R, Side: L R, LFE
Sampling rate : 48.0 KHz
Bit depth : 24 bits
Compression mode : Lossy
Delay relative to video : 11ms
Stream size : 1.12 GiB (25%)
Language : English

Text
ID : 4
Format : UTF-8
Codec ID : S_TEXT/UTF8
Codec ID/Info : UTF-8 Plain Text
Language : English

Menu
00:00:00.000 : en:00:00:00.000
00:03:18.824 : en:00:03:18.824
00:08:09.531 : en:00:08:09.531
00:13:27.682 : en:00:13:27.682
00:18:02.790 : en:00:18:02.790
00:22:20.130 : en:00:22:20.130
00:29:50.789 : en:00:29:50.789
00:33:50.862 : en:00:33:50.862
00:40:25.757 : en:00:40:25.757
00:45:05.202 : en:00:45:05.202
00:52:02.786 : en:00:52:02.786
00:58:06.358 : en:00:58:06.358
01:04:17.645 : en:01:04:17.645
01:09:29.624 : en:01:09:29.624
01:16:26.332 : en:01:16:26.332
01:19:17.670 : en:01:19:17.670
01:24:27.229 : en:01:24:27.229
01:30:26.796 : en:01:30:26.796
01:36:37.333 : en:01:36:37.333
01:38:21.395 : en:01:38:21.395


Свернуть

Скриншоты
Изображение
Изображение
Изображение
Изображение
Свернуть
Не в сети
Профиль  
 Добавлено: 2011-12-25 11:45 (спустя 28 дней)
Аватара пользователя
Стаж: 7 лет 1 месяц
Сообщений: 235
Спасибок: 1
Лайков: 1
ПАсаны встаньте на раздачу ебаааааааа!)
В сети
Профиль  
Начать новую темуОтветить на тему  [ Сообщений: 2 ] 
Вы не можете начинать темы
Вы не можете отвечать на сообщения
Вы не можете редактировать свои сообщения
Вы не можете удалять свои сообщения