Правила форума

Здесь находятся раздачи, на которых не было полного источника (сида) более месяца.
Вы можете вернуть релиз в соответствующий раздел, для этого напишите нам в специальной теме и встаньте на раздачу.
Новые релизы, повторяющие релизы в архиве, повторами не считаются.
Начать новую темуОтветить на тему  [ Сообщений: 3 ] 
Сообщения
 Добавлено: 2012-04-19 21:36
Модератор релиз-группы
Аватара пользователя
Стаж: 9 лет 1 месяц
Возраст: 97
Сообщений: 11660
Спасибок: 6534
Лайков: 269
Нокаут / Haywire

«Ей не оставили выбора»

Изображение

Год выпуска: 2011
Страна: США, Ирландия
Жанр: Боевик, триллер
Продолжительность: 01:33:00
Перевод: Профессиональный (дубляж)
Оригинальная аудио дорожка
Субтитры: Английские

Режиссёр: Стивен Содерберг

В ролях: Джина Карано, Юэн МакГрегор, Майкл Дуглас,Антонио Бандерас, Ченнинг Татум, Матьё Кассовиц, Майкл Фассбендер, Майкл Ангарано,Дебби Линн Росс, Джулиан Алькараз

Описание: Мэллори Кейн — секретный спецагент. Она молода, умна и красива. Время от времени шеф международной спецслужбы Кеннет вызывает ее для выполнения заданий, не всегда санкционированных правительством. Но после провала череды операций Мэллори осознает, что она пешка в двойной игре. Теперь ей нужно использовать весь свой талант и опыт, чтобы скрыться от международного розыска, защитить свою семью и отомстить за предательство…
Изображение

Качество: BDRip (1080p)
Видео: MPEG-4 AVC, 8597 Кбит/с, 1920х800
Аудио: Русский DTS, 6 ch, 755 Кбит/с
Аудио: Английский DTS, 6 ch, 1510 Кбит/с
Субтитры: Английские
скриншоты
Изображение

Изображение

Изображение

Свернуть
Mi
Format : Matroska
Format version : Version 2
File size : 7.04 GiB
Duration : 1h 32mn
Overall bit rate : 10.9 Mbps
Movie name : Haywire (2011) - Release for HDCLUB by doclogan
Encoded date : UTC 2012-04-18 20:33:08
Writing application : mkvmerge v4.0.0 ('The Stars were mine') сборка от Jun 6 2010 16:18:42
Writing library : libebml v1.0.0 + libmatroska v1.0.0

Video
ID : 1
Format : AVC
Format/Info : Advanced Video Codec
Format profile : High@L4.1
Format settings, CABAC : Yes
Format settings, ReFrames : 5 frames
Codec ID : V_MPEG4/ISO/AVC
Duration : 1h 32mn
Bit rate : 8 597 Kbps
Width : 1 920 pixels
Height : 800 pixels
Display aspect ratio : 2.40:1
Frame rate : 23.976 fps
Color space : YUV
Chroma subsampling : 4:2:0
Bit depth : 8 bits
Scan type : Progressive
Bits/(Pixel*Frame) : 0.233
Stream size : 5.44 GiB (77%)
Writing library : x264 core 122 r2184 5c85e0a
Encoding settings : cabac=1 / ref=5 / deblock=1:0:0 / analyse=0x3:0x133 / me=umh / subme=7 / psy=1 / psy_rd=1.00:0.00 / mixed_ref=1 / me_range=16 / chroma_me=1 / trellis=1 / 8x8dct=1 / cqm=0 / deadzone=21,11 / fast_pskip=0 / chroma_qp_offset=-2 / threads=12 / sliced_threads=0 / nr=0 / decimate=1 / interlaced=0 / bluray_compat=0 / constrained_intra=0 / bframes=3 / b_pyramid=2 / b_adapt=1 / b_bias=0 / direct=1 / weightb=1 / open_gop=0 / weightp=2 / keyint=250 / keyint_min=23 / scenecut=40 / intra_refresh=0 / rc_lookahead=40 / rc=2pass / mbtree=1 / bitrate=8597 / ratetol=1.0 / qcomp=0.60 / qpmin=0 / qpmax=69 / qpstep=4 / cplxblur=20.0 / qblur=0.5 / ip_ratio=1.40 / aq=1:1.00
Language : English
Default : No
Forced : No

Audio #1
ID : 2
Format : DTS
Format/Info : Digital Theater Systems
Codec ID : A_DTS
Duration : 1h 32mn
Bit rate mode : Constant
Bit rate : 755 Kbps
Channel(s) : 6 channels
Channel positions : Front: L C R, Side: L R, LFE
Sampling rate : 48.0 KHz
Bit depth : 16 bits
Compression mode : Lossy
Delay relative to video : 11ms
Stream size : 501 MiB (7%)
Title : DTS 5.1 @ 768 kbps – Дубляж (R5)
Language : Russian
Default : No
Forced : No

Audio #2
ID : 3
Format : DTS
Format/Info : Digital Theater Systems
Codec ID : A_DTS
Duration : 1h 32mn
Bit rate mode : Constant
Bit rate : 1 510 Kbps
Channel(s) : 6 channels
Channel positions : Front: L C R, Side: L R, LFE
Sampling rate : 48.0 KHz
Bit depth : 24 bits
Compression mode : Lossy
Delay relative to video : 11ms
Stream size : 1 003 MiB (14%)
Default : No
Forced : No

Menu
00:00:00.000 : en:00:00:00.000
00:07:14.684 : en:00:07:14.684
00:12:07.477 : en:00:12:07.477
00:20:05.538 : en:00:20:05.538
00:24:06.737 : en:00:24:06.737
00:30:00.173 : en:00:30:00.173
00:38:16.878 : en:00:38:16.878
00:43:34.278 : en:00:43:34.278
00:47:58.751 : en:00:47:58.751
00:54:29.308 : en:00:54:29.308
00:58:55.490 : en:00:58:55.490
01:05:55.285 : en:01:05:55.285
01:10:12.708 : en:01:10:12.708
01:16:10.649 : en:01:16:10.649
01:21:51.448 : en:01:21:51.448
01:25:16.028 : en:01:25:16.028

Свернуть
_________________
Изображение
Не в сети
Профиль  
 Добавлено: 2012-04-24 15:07 (спустя 4 дня)
Стаж: 7 лет 5 месяцев
Сообщений: 5
А 720p сделайте плиз!
Не в сети
Профиль  
 Добавлено: 2012-04-24 15:22 (спустя 14 минут)
Модератор релиз-группы
Аватара пользователя
Стаж: 9 лет 1 месяц
Возраст: 97
Сообщений: 11660
Спасибок: 6534
Лайков: 269

Turbic:

сделайте
сделали недавно :)
_________________
Изображение
Не в сети
Профиль  
Начать новую темуОтветить на тему  [ Сообщений: 3 ] 
Вы не можете начинать темы
Вы не можете отвечать на сообщения
Вы не можете редактировать свои сообщения
Вы не можете удалять свои сообщения