Правила форума

Здесь находятся раздачи, на которых не было полного источника (сида) более месяца.
Вы можете вернуть релиз в соответствующий раздел, для этого напишите нам в специальной теме и встаньте на раздачу.
Новые релизы, повторяющие релизы в архиве, повторами не считаются.
Начать новую темуОтветить на тему  [ Сообщений: 9 ] 
Сообщения
 Добавлено: 2014-08-01 08:44
Руководитель релиз-группы
Аватара пользователя
Стаж: 7 лет 2 месяца
Возраст: 4
Сообщений: 5213
Спасибок: 19351
Лайков: 2312
Новый Человек-паук: Высокое напряжение / The Amazing Spider-Man 2: Rise of Electro

Изображение


Год выпуска: 2014
Страна: США, Marvel Enterprises, Avi Arad Productions, Columbia
Жанр: Фэнтези, боевик, приключения, комикс, супергерой
Продолжительность: 02:21:34
Перевод: Профессиональный (дубляж)
Субтитры: Русские, Английские

Режиссёр: Марк Уэбб
В ролях: Эндрю Гарфилд, Эмма Стоун, Джейми Фокс, Дэйн ДеХаан, Колм Фиор, Фелисити Джонс, Пол Джаматти, Салли Филд, Эмбет Дэвидц, Кэмпбелл Скотт
Описание: Питер Паркер под маской Человека-паука по-прежнему спасает мир от злодеев и преступников, а свободное время проводит со своей возлюбленной Гвен, но школьная пора близится к концу, и впереди героев ждет взрослая жизнь. Питер помнит о том, что дал отцу Гвен слово навсегда уйти из жизни девушки, тем самым больше не подвергая ее опасности. Однако сдержать это обещание не так просто. Судьба готовит Питеру сюрпризы: на его пути появится новый противник — Электро, а также ему будет суждено вновь встретиться с давним приятелем Гарри Озборном и узнать много нового о прошлом своей семьи.


Качество: BDRip (1080p)
Формат: MKV
Видео: Русский (AC3, 6 ch, 384 Кбит/с), украинский (AC3, 2 ch, 192 Кбит/с), английский (DTS, 6 ch, 1510 Кбит/с)
Аудио #1: MPEG-4 AVC, 8935 Кбит/с, 1920x1080 [Профессиональный (дубляж)]
Субтитры: Русские, Английские
Скриншоты
Изображение
Изображение
Изображение
Свернуть


MI
Общее
Уникальный идентификатор: 224247527161240915741960174794409417376 (0xA8B480B451E0F8CEBC0CB91639629AA0)
Полное имя: D:\The.Amazing.Spider-Man.2.2014.RETAIL.1080p.Bluray.DTS-HD.x264-EVO\The.Amazing.Spider.Man.2.2014.BDRip.1080p.NNM-CLUB.mkv
Формат: Matroska
Версия формата: Version 2
Размер файла: 11,1 Гбайт
Продолжительность: 2 ч. 21 м.
Режим общего битрейта: Переменный
Общий поток: 11,2 Мбит / сек
Название фильма: The Amazing Spider-Man 2: Восхождение Electro (2014)
Дата кодирования: UTC 2014-08-01 4:24:13
Программа кодирования: MKVMerge v6.9.1 ('Голубой Пантера') 64bit построен на 18 апреля 2014 18:23:38
Библиотека кодирования: libebml v1.3.0 + libmatroska v1.4.1

Видео
Идентификатор: 1
Формат: AVC
Формат / Информация: Advanced Video Codec
Профиль формата: High@L4.1
Параметр CABAC формата: Да
Параметр меняет взгляды формата: 2 кадра
Параметр GOP формата: M = 1, N = 10
Идентификатор кодека: V_MPEG4 / ISO / AVC
Продолжительность: 2 ч. 21 м.
Вид битрейта: Переменный
Битрейт: 8935 Кбит / сек
Ширина: 1920 пикселей
Высота: 1080 пикселей
Соотношение сторон: 16: 9
Режим частоты кадров: Постоянный
Частота кадров: 23,976 кадра / сек
Цветовое пространство: YUV
Субдискретизация насыщенности: 4: 2: 0
Битовая глубина: 8 бит
Тип развёртки: Прогрессивная
Бит / (Пиксели * Кадры): 0.180
Размер потока: 8,84 Гбайт (79%)
Язык: английский
По умолчанию: Да
Принудительный: Нет

Аудио # 1
Идентификатор: 2
Формат: AC-3
Формат / Информация: Audio Coding 3
Расширение режима: CM (полный основной)
Параметр Порядок байтов формата: Большой
Идентификатор кодека: A_AC3
Продолжительность: 2 ч. 21 м.
Вид битрейта: Постоянный
Битрейт: 384 Кбит / сек
Каналы: 6 каналов
Расположение каналов: Front: LCR, Side: LR, LFE
Частота: 48,0 КГц
Битовая глубина: 16 бит
Метод сжатия: С потерями
Размер потока: 389 Мбайт (3%)
Язык: Русский
По умолчанию: Да
Принудительный: Нет

Аудио # 2
Идентификатор: 3
Формат: AC-3
Формат / Информация: Audio Coding 3
Расширение режима: CM (полный основной)
Параметр Порядок байтов формата: Большой
Идентификатор кодека: A_AC3
Продолжительность: 2 ч. 21 м.
Вид битрейта: Постоянный
Битрейт: 192 Кбит / сек
Каналы: 2 канала
Расположение каналов: Front: LR
Частота: 48,0 КГц
Битовая глубина: 16 бит
Метод сжатия: С потерями
Размер потока: 194 Мбайт (2%)
Язык: украинский
По умолчанию: Нет
Принудительный: Нет

Аудио # 3
Идентификатор: 4
Формат: DTS
Формат / Информация: Digital Theater Systems
Режим: 16
Параметр Порядок байтов формата: Большой
Идентификатор кодека: A_DTS
Продолжительность: 2 ч. 21 м.
Вид битрейта: Постоянный
Битрейт: 1509 Кбит / сек
Каналы: 6 каналов
Расположение каналов: Front: LCR, Side: LR, LFE
Частота: 48,0 КГц
Битовая глубина: 24 бит
Метод сжатия: С потерями
Размер потока: 1,49 Гбайт (13%)
Язык: английский
По умолчанию: Нет
Принудительный: Нет

Текст # 1
Идентификатор: 5
Формат: UTF-8
Идентификатор кодека: S_TEXT/UTF8
Идентификатор кодека / Информация: UTF-8 Plain Text
Заголовок: Принудительное
Язык: Русский
По умолчанию: Да
Принудительный: Нет

Текст # 2
Идентификатор: 6
Формат: UTF-8
Идентификатор кодека: S_TEXT/UTF8
Идентификатор кодека / Информация: UTF-8 Plain Text
Заголовок: Полный
Язык: Русский
По умолчанию: Нет
Принудительный: Нет

Текст # 3
Идентификатор: 7
Формат: UTF-8
Идентификатор кодека: S_TEXT/UTF8
Идентификатор кодека / Информация: UTF-8 Plain Text
Язык: английский
По умолчанию: Нет
Принудительный: Нет

Меню
00:00:00.000: EN: 1
00: 07: 07.000: ан: 2
00: 17: 06.000: ан: 3
00: 22: 21.000: ан: 4
00: 33: 13.000: ан: 5
00: 45: 13.000: ан: 6
00: 50: 55.000: ан: 7
00: 59: 48.000: ан: 8
01: 12: 45.000: ан: 9
01: 22: 51.000: ан: 10
01: 31: 47.000: ан: 11
01: 38: 33.000: ан: 12
01: 44: 19.000: ан: 13
01: 49: 21.000: ан: 14
01: 56: 15.000: ан: 15
02: 03: 09.000: ан: 16
Свернуть
Не в сети
Профиль  
 Добавлено: 2014-08-01 09:32 (спустя 48 минут)
Аватара пользователя
Стаж: 7 лет 5 месяцев
Сообщений: 113
Лайков: 1
ураааааааа качаю))))))))))))))))
_________________
Будь добрее
Не в сети
Профиль  
 Добавлено: 2014-08-01 10:26 (спустя 54 минуты)
DVD Release Group
Аватара пользователя
Стаж: 7 лет 1 месяц
Сообщений: 3569
Спасибок: 247801
Лайков: 1020
zima-letoru
Рассинхрон убран?
Не в сети
Профиль  
 Добавлено: 2014-08-01 12:33 (спустя 2 часа 6 минут)
Аватара пользователя
Стаж: 4 года 3 месяца
Сообщений: 1
раздаваться будет??
Не в сети
Профиль  
 Добавлено: 2014-08-01 14:22 (спустя 1 час 49 минут)
Руководитель релиз-группы
Аватара пользователя
Стаж: 7 лет 2 месяца
Возраст: 4
Сообщений: 5213
Спасибок: 19351
Лайков: 2312
Заменил на более лучший!
_________________
Изображение

Изображение
Не в сети
Профиль  
 Добавлено: 2014-08-01 23:21 (спустя 8 часов)
Аватара пользователя
Стаж: 9 лет 1 месяц
Сообщений: 2152
Спасибок: 778
Лайков: 14
Эм, а что за полоски на скринах? Запилите сэмпл.
_________________
PSN
Изображение
Свернуть
Изображение
Не в сети
Профиль  
 Добавлено: 2014-08-02 09:20 (спустя 9 часов)
Аватара пользователя
Стаж: 8 лет 2 месяца
Возраст: 38
Сообщений: 94
Спасибок: 24
у меня на плекс что то не запустилось(((
пишет тип файла не поддерживается.

PS^ походу битый был
Не в сети
Профиль  
 Добавлено: 2014-08-03 15:08 (спустя 1 день 5 часов)
Аватара пользователя
Стаж: 8 лет 1 месяц
Возраст: 31
Сообщений: 46
Спасибок: 1
в инфо перепутал аудио и видео местами. Видео: Русский (AC3, 6 ch, 384 Кбит/с), украинский (AC3, 2 ch, 192 Кбит/с), английский (DTS, 6 ch, 1510 Кбит/с)
Аудио #1: MPEG-4 AVC, 8935 Кбит/с, 1920x1080 [Профессиональный (дубляж)]
Не в сети
Профиль  
 Добавлено: 2014-09-07 18:41 (спустя 1 месяц 4 дня)
Аватара пользователя
Стаж: 7 лет 6 месяцев
Сообщений: 78
Лайков: 1
По какляцки будет "Нова Людина-павук: Висока напруга" :-D
Не в сети
Профиль  
Начать новую темуОтветить на тему  [ Сообщений: 9 ] 
Вы не можете начинать темы
Вы не можете отвечать на сообщения
Вы не можете редактировать свои сообщения
Вы не можете удалять свои сообщения