Правила форума

Здесь находятся раздачи, на которых не было полного источника (сида) более месяца.
Вы можете вернуть релиз в соответствующий раздел, для этого напишите нам в специальной теме и встаньте на раздачу.
Новые релизы, повторяющие релизы в архиве, повторами не считаются.
Начать новую темуОтветить на тему  [ Сообщений: 4 ] 
Сообщения
 Добавлено: 2012-12-06 17:15
Top-releaser
Аватара пользователя
Стаж: 8 лет 9 месяцев
Сообщений: 479
Спасибок: 20190
Лайков: 16
Изображение

Изображение

Resident Evil: Retribution


«Evil goes global»

Год выпуска: 2012
Страна: Германия, Канада; Constantin Film International, Davis Films/Impact Pictures (RE5)
Жанр: Ужасы, фантастика, боевик, триллер
Продолжительность: 01:35:38
Перевод: Профессиональный (дублированный) [Лицензия], Оригинал
Субтитры: Русские, английские

Режиссёр: Пол У. С. Андерсон / Paul W.S. Anderson

В ролях: Милла Йовович, Сиенна Гиллори, Мишель Родригез, Ариана Энджинир, Ли Бинбин, Борис Коджо, Йохан Урб, Робин Касянов, Кевин Дюран, Офилио Портильо, Одед Фер, Шоун Робертс, Тошио Оки, Такато Йамашита, Мика Накашима, Меган Чарпентье, Авэ Мерсон-О’Брайан, Рэй Олубовейл, Кевин Шанд, Разаак Адоти, Ким Коутс, Мартин Крюз, Иэн Глен, Сандрин Холт, Томас Кречманн, Эли Лартер, Спенсер Лок, Эрик Мэбиас, Вентворт Миллер, Джеймс Пьюрфой, Норман Енг, Анна Болт, Индра Ове, Джозеф Мэй, Хайке Макатч, Лиз Мэй Брайс, Паскуале Алеарди, Колин Сэлмон, Аманда Дийар, Крис Саллинс, Пэрис Сил

Описание: Смертельный T-вирус, созданный в лабораториях корпорации «Амбрелла», продолжает захватывать Землю, превращая мировое население в легионы пожирающих плоть зомби. Последняя надежда человечества Элис внедряется в самое сердце самой тайной исследовательской базы корпорации и узнает еще больше о собственном таинственном прошлом. Не имея путей к отступлению, Элис продолжает искать виновных в глобальной катастрофе. Вызов, который она принимала в Токио, Нью-Йорке, Вашингтоне и даже в Москве, приводит ее в итоге к взрывающему сознание откровению, которое заставит ее переосмыслить все, что она полагала правдой. С помощью новых союзников и старых друзей, Элис будет сражаться за выживание и убегать из враждебного мира. Отсчет времени начат…


Качество: BDRip 1080p R5
Формат: MKV

Видео: AVC at 8301 Кбит/сек, 1920 x 800 (2.400) at 23.976 fps


Аудио 1: AC-3 at 384 Кбит/сек, 6 канала(ов), 48,0 КГц [Дубляж]
Аудио 2: DTS at 1510 Кбит/сек, 6 канала(ов), 48,0 КГц [Оригинал]
Раздача: Изображение


Изображение
MediaInfo

Общее
Уникальный идентификатор : 211201058440466444805559983370612390447 (0x9EE3D82251D8D4648F9D495E6A6E3A2F)
Полное имя : C:\Users\Домашний\Desktop\Resident.Evil.Retribution.2012.1080p.[nntt].mkv
Формат : Matroska
Размер файла : 6,80 Гбайт
Продолжительность : 1 ч. 35 м.
Общий поток : 10,2 Мбит/сек
Дата кодирования : UTC 2012-12-06 09:45:15
Программа кодирования : mkvmerge v5.8.0 ('No Sleep / Pillow') built on Sep 2 2012 15:37:04
Библиотека кодирования : libebml v1.2.3 + libmatroska v1.3.0

Видео
Идентификатор : 1
Формат : AVC
Формат/Информация : Advanced Video Codec
Профиль формата : High@L4.1
Параметр CABAC формата : Да
Параметр ReFrames формата : 5 кадры
Идентификатор кодека : V_MPEG4/ISO/AVC
Продолжительность : 1 ч. 35 м.
Битрейт : 8301 Кбит/сек
Ширина : 1920 пикс.
Высота : 800 пикс.
Соотношение сторон : 2,40:1
Частота кадров : 23,976 кадр/сек
Цветовое пространство : YUV
Подвыборка цветности : 4:2:0
Битовая глубина : 8 бит
Тип развёртки : Прогрессивная
Бит/(Пиксели*Кадры) : 0.225
Размер потока : 5,40 Гбайт (79%)
Библиотека кодирования : x264 core 129 r2230 1cffe9f
Настройки программы : cabac=1 / ref=5 / deblock=1:0:0 / analyse=0x3:0x133 / me=umh / subme=7 / psy=1 / psy_rd=1.00:0.00 / mixed_ref=1 / me_range=16 / chroma_me=1 / trellis=1 / 8x8dct=1 / cqm=0 / deadzone=21,11 / fast_pskip=0 / chroma_qp_offset=-2 / threads=12 / lookahead_threads=2 / sliced_threads=0 / nr=0 / decimate=1 / interlaced=0 / bluray_compat=0 / constrained_intra=0 / bframes=3 / b_pyramid=2 / b_adapt=1 / b_bias=0 / direct=1 / weightb=1 / open_gop=0 / weightp=2 / keyint=250 / keyint_min=23 / scenecut=40 / intra_refresh=0 / rc_lookahead=40 / rc=2pass / mbtree=1 / bitrate=8301 / ratetol=1.0 / qcomp=0.60 / qpmin=0 / qpmax=69 / qpstep=4 / cplxblur=20.0 / qblur=0.5 / ip_ratio=1.40 / aq=1:1.00
Язык : English

Аудио #1
Идентификатор : 2
Формат : AC-3
Формат/Информация : Audio Coding 3
Расширение режима : CM (complete main)
Идентификатор кодека : A_AC3
Продолжительность : 1 ч. 35 м.
Вид битрейта : Постоянный
Битрейт : 384 Кбит/сек
Канал(ы) : 6 канала(ов)
Расположение каналов : Front: L C R, Side: L R, LFE
Частота : 48,0 КГц
Битовая глубина : 16 бит
Метод сжатия : С потерями
Размер потока : 263 Мбайт (4%)
Язык : Russian

Аудио #2
Идентификатор : 3
Формат : DTS
Формат/Информация : Digital Theater Systems
Идентификатор кодека : A_DTS
Продолжительность : 1 ч. 35 м.
Вид битрейта : Постоянный
Битрейт : 1510 Кбит/сек
Канал(ы) : 6 канала(ов)
Расположение каналов : Front: L C R, Side: L R, LFE
Частота : 48,0 КГц
Битовая глубина : 24 бит
Метод сжатия : С потерями
Размер потока : 1,01 Гбайт (15%)
Язык : English

Текст #1
Идентификатор : 4
Формат : UTF-8
Идентификатор кодека : S_TEXT/UTF8
Идентификатор кодека/Информация : UTF-8 Plain Text
Язык : Russian

Текст #2
Идентификатор : 5
Формат : UTF-8
Идентификатор кодека : S_TEXT/UTF8
Идентификатор кодека/Информация : UTF-8 Plain Text
Язык : English

Меню
00:00:00.000 : en:00:00:00.000
00:07:43.046 : en:00:07:43.046
00:14:32.538 : en:00:14:32.538
00:21:38.839 : en:00:21:38.839
00:25:39.329 : en:00:25:39.329
00:29:31.186 : en:00:29:31.186
00:34:16.846 : en:00:34:16.846
00:39:14.769 : en:00:39:14.769
00:45:29.435 : en:00:45:29.435
00:50:27.441 : en:00:50:27.441
00:54:42.070 : en:00:54:42.070
01:00:14.861 : en:01:00:14.861
01:05:38.476 : en:01:05:38.476
01:11:22.904 : en:01:11:22.904
01:16:15.571 : en:01:16:15.571
01:21:29.384 : en:01:21:29.384


Свернуть
Скриншоты

Изображение
Изображение
Изображение
Изображение
Изображение
Изображение
Свернуть
_________________
Изображение
Изображение
Не в сети
Профиль  
 Добавлено: 2012-12-06 17:53 (спустя 37 минут)
Аватара пользователя
Стаж: 6 лет 6 месяцев
Возраст: 30
Сообщений: 3614
Спасибок: 2661
Лайков: 1
Шикарный оформос :bra_vo:
_________________
Иногда мне кажется,что я пишу посты лишь потому,что мне хочется что то написать
Не в сети
Профиль  
 Добавлено: 2012-12-06 19:18 (спустя 1 час 25 минут)
Руководитель релиз-группы
Аватара пользователя
Стаж: 7 лет 5 месяцев
Возраст: 31
Сообщений: 3406
Спасибок: 46729
Лайков: 5
сцен-рип.. :(
ждем лучшего качества
Не в сети
Профиль  
 Добавлено: 2012-12-07 05:41 (спустя 10 часов)
Руководитель релиз-группы
Аватара пользователя
Стаж: 7 лет 5 месяцев
Возраст: 31
Сообщений: 3406
Спасибок: 46729
Лайков: 5
viewtopic.php?f=1750&t=491360
Не в сети
Профиль  
Начать новую темуОтветить на тему  [ Сообщений: 4 ] 
Вы не можете начинать темы
Вы не можете отвечать на сообщения
Вы не можете редактировать свои сообщения
Вы не можете удалять свои сообщения