Правила форума

Здесь находятся раздачи, на которых не было полного источника (сида) более месяца.
Вы можете вернуть релиз в соответствующий раздел, для этого напишите нам в специальной теме и встаньте на раздачу.
Новые релизы, повторяющие релизы в архиве, повторами не считаются.
Начать новую темуОтветить на тему  [ Сообщений: 3 ] 
Сообщения
 Добавлено: 2012-12-17 09:30
Модератор
Аватара пользователя
Стаж: 6 лет 10 месяцев
Возраст: 33
Сообщений: 5908
Спасибок: 61265
Лайков: 3540
Изображение

Облачный атлас
Cloud Atlas


Год выпуска: 2012
Страна: Германия, США, Гонконг, Сингапур
Слоган: «Всё взаимосвязано»
Жанр: фантастика, драма, детектив
Продолжительность: 02:52:07
Перевод: Профессиональный (полное дублирование)
Режиссер: Лана Вачовски, Том Тыквер, Энди Вачовски
Сценарий: Лана Вачовски, Том Тыквер, Энди Вачовски, Дэвид Митчелл
Продюсер: Штефан Арндт, Том Тыквер, Энди Вачовски, Лана Вачовски, Грант Хилл
Оператор: Франк Грибе, Джон Толл
Композитор: Райнхольд Хайль, Джонни Клаймек, Том Тыквер
В ролях: Том Хэнкс, Станислав Концевич, Холли Берри, Лилиан Наврозашвили, Джим Броудбент, Валентин Морозов, Хьюго Уивинг, Валерий Кухарешин, Джим Стёрджесс, Дмитрий Паламарчук, Пэ Дуна, Светлана Щедрина
Бюджет: $100 000 000
Сборы в США: $26 539 928
Сборы в России: $16 144 824
Сборы в мире: $62 814 420
Мировая премьера: 8 сентября 2012
Релиз на DVD: 25 декабря 2012, «Новый Диск»
Релиз на Blu-ray: 25 декабря 2012, «Новый Диск»
Описание: Шесть историй - пять реинкарнаций, происходящих в разное время, тесно переплетаются между собой.

Изображение User Rating: 8.291 (36 141)
Изображение User Rating: 8.20 (34 283)
MPAA: R - Лицам до 17 лет обязательно присутствие взрослого
Релиз от: Изображение
Раздача группы: Изображение
Качество: BDRip, 720p
Формат: Matroska
Видео: 1280x544 at 23.976 fps, x264@L4.1, 2pass, ~6000 kbps avg
Аудио: Russian: 48 kHz/16-bit, DTS, 3/2 (L,C,R,l,r) + LFE ch, ~1509.00 kbps avg |Дубляж, Blu-ray RUS|
mediainfo
General
Unique ID : 215303846727681345161551545680076527629 (0xA1FA0336D5AAA35FA8C877029EE0D80D)
Complete name : Cloud.Atlas.2012.720p.Bluray.Rus.HDCLUB.mkv
Format : Matroska
Format version : Version 2
File size : 9.00 GiB
Duration : 2h 52mn
Overall bit rate : 7 482 Kbps
Movie name : HDCLUB present "Cloud Atlas (2012)"
Encoded date : UTC 2012-12-17 00:54:20
Writing application : mkvmerge v5.6.0 ('Kenya Kane') built on May 27 2012 16:44:04
Writing library : libebml v1.2.3 + libmatroska v1.3.0

Video
ID : 1
Format : AVC
Format/Info : Advanced Video Codec
Format profile : High@L4.1
Format settings, CABAC : Yes
Format settings, ReFrames : 12 frames
Codec ID : V_MPEG4/ISO/AVC
Duration : 2h 52mn
Bit rate : 6 000 Kbps
Width : 1 280 pixels
Height : 544 pixels
Display aspect ratio : 2.35:1
Frame rate mode : Constant
Frame rate : 23.976 fps
Color space : YUV
Chroma subsampling : 4:2:0
Bit depth : 8 bits
Scan type : Progressive
Bits/(Pixel*Frame) : 0.359
Stream size : 7.00 GiB (78%)
Title : Cloud.Atlas.2012.720p.Bluray.Rus.HDCLUB
Writing library : x264 core 129 r2230 1cffe9f
Encoding settings : cabac=1 / ref=12 / deblock=1:-3:-3 / analyse=0x3:0x133 / me=umh / subme=11 / psy=1 / psy_rd=1.10:0.00 / mixed_ref=1 / me_range=32 / chroma_me=1 / trellis=2 / 8x8dct=1 / cqm=0 / deadzone=21,11 / fast_pskip=0 / chroma_qp_offset=-2 / threads=12 / lookahead_threads=2 / sliced_threads=0 / nr=0 / decimate=1 / interlaced=0 / bluray_compat=0 / constrained_intra=0 / bframes=7 / b_pyramid=2 / b_adapt=2 / b_bias=0 / direct=3 / weightb=1 / open_gop=0 / weightp=2 / keyint=250 / keyint_min=23 / scenecut=40 / intra_refresh=0 / rc_lookahead=60 / rc=2pass / mbtree=0 / bitrate=6000 / ratetol=1.0 / qcomp=0.60 / qpmin=0 / qpmax=69 / qpstep=4 / cplxblur=20.0 / qblur=0.5 / vbv_maxrate=50000 / vbv_bufsize=62500 / nal_hrd=none / ip_ratio=1.40 / pb_ratio=1.30 / aq=1:0.80
Language : English
Default : Yes
Forced : Yes

Audio
ID : 2
Format : DTS
Format/Info : Digital Theater Systems
Mode : 16
Format settings, Endianness : Big
Codec ID : A_DTS
Duration : 2h 52mn
Bit rate mode : Constant
Bit rate : 1 509 Kbps
Channel(s) : 6 channels
Channel positions : Front: L C R, Side: L R, LFE
Sampling rate : 48.0 KHz
Bit depth : 16 bits
Compression mode : Lossy
Stream size : 1.81 GiB (20%)
Title : DTS 5.1 @ 1509 kbps - Dubbing [Blu-ray RUS]
Language : Russian
Default : Yes
Forced : Yes

Menu
00:00:00.000 : en:1
00:05:23.698 : en:2
00:14:48.554 : en:3
00:24:37.559 : en:4
00:31:45.361 : en:5
00:38:48.284 : en:6
00:46:39.087 : en:7
00:54:30.684 : en:8
00:59:25.937 : en:9
01:06:08.381 : en:10
01:12:34.266 : en:11
01:20:25.153 : en:12
01:26:51.456 : en:13
01:33:15.006 : en:14
01:39:44.645 : en:15
01:45:39.374 : en:16
01:53:32.388 : en:17
02:00:03.070 : en:18
02:09:22.921 : en:19
02:16:09.870 : en:20
02:22:03.431 : en:21
02:29:16.656 : en:22
02:37:02.246 : en:23
02:42:50.218 : en:24
Свернуть
"Знаете ли Вы, что..."
  • На съемках Холли Берри сломала ногу.
Свернуть
Скриншоты

Изображение
Изображение
Изображение
Изображение
Изображение
Изображение
Изображение
Изображение
Свернуть
_________________
ИзображениеИзображение Изображение
Изображение


Последний раз редактировалось rotametr 2012-12-17 14:58, всего редактировалось 1 раз.
 tany1984 и di-ys1 нравится это.
Не в сети
Профиль  
 Добавлено: 2012-12-17 10:55 (спустя 1 час 25 минут)
Аватара пользователя
Стаж: 7 лет 10 месяцев
Возраст: 27
Сообщений: 149
Спасибо, забираю в коллекцию.
Не в сети
Профиль  
 Добавлено: 2012-12-17 19:19 (спустя 8 часов)
Руководитель релиз-группы
Аватара пользователя
Стаж: 7 лет 5 месяцев
Возраст: 31
Сообщений: 3406
Спасибок: 46729
Лайков: 5
повтор
viewtopic.php?f=1743&t=492568
Не в сети
Профиль  
Начать новую темуОтветить на тему  [ Сообщений: 3 ] 
Вы не можете начинать темы
Вы не можете отвечать на сообщения
Вы не можете редактировать свои сообщения
Вы не можете удалять свои сообщения