Правила форума

Здесь находятся раздачи, на которых не было полного источника (сида) более месяца.
Вы можете вернуть релиз в соответствующий раздел, для этого напишите нам в специальной теме и встаньте на раздачу.
Новые релизы, повторяющие релизы в архиве, повторами не считаются.
Начать новую темуОтветить на тему  [ Сообщений: 4 ] 
Сообщения
 Добавлено: 2013-07-20 23:46
Модератор
Аватара пользователя
Стаж: 8 лет 1 месяц
Возраст: 20
Сообщений: 32130
Спасибок: 98566
Лайков: 80
Обливион \ Oblivion

Изображение

Страна: США, Chernin Entertainment, Ironhead Studios, Radical Pictures, Radical Studios, Truenorth Productions, Universal Pictures
Режиссер: Джозеф Косински
Жанр: Фантастика, боевик, триллер, приключения, антиутопия
Год выхода: 2013
Перевод: Проф.(Полное дублирование) с CAMRip

Русские субтитры: Нет

В ролях:

Том Круз, Ольга Куриленко, Морган Фримен, Андреа
Райзборо, Николай Костер-Валдау, Мелисса Лео, Зои
Белл, Эбигейл Лоу, Изабель Лоу, Дэвид Мэдисон

Описание:

Можно ли скучать по месту, в котором никогда не был,
мечтать о девушке, которую никогда не видел? Добро
пожаловать в будущее! Мы больше не можем называть
Землю своим домом. Мы выиграли войну, но не смогли
сохранить планету…

Качество: HDTVRip
Видео кодек: MPEG4
Видео кодек: MP3
Видео: MPEG4 (AVC), 1280x720, 29.554 fps, 3549 kbit/s
Видео кодек: Russian / English: MP3, 320 kb/s (2 ch)
Скриншоты:
Cкрытый текст
Изображение

Изображение

Изображение
Свернуть
MediaInfo
General
Unique ID : 251808588394840395290844914449057082328 (0xBD7091EFBCBD4B41B9EC60C979CC6BD8)
Complete name : Обливион.2013.mkv
Format : Matroska
Format version : Version 2
File size : 3.72 GiB
Duration : 2h 4mn
Overall bit rate : 4 274 Kbps
Encoded date : UTC 2013-07-20 16:06:50
Writing application : mkvmerge v5.7.0 ('The Whirlwind') built on Jul 8 2012 20:08:51
Writing library : libebml v1.2.3 + libmatroska v1.3.0

Video
ID : 1
Format : AVC
Format/Info : Advanced Video Codec
Format profile : High@L4.1
Format settings, CABAC : Yes
Format settings, ReFrames : 5 frames
Muxing mode : Header stripping
Codec ID : V_MPEG4/ISO/AVC
Duration : 2h 4mn
Bit rate : 3 549 Kbps
Width : 1 280 pixels
Height : 720 pixels
Display aspect ratio : 16:9
Frame rate mode : Variable
Frame rate : 29.555 fps
Color space : YUV
Chroma subsampling : 4:2:0
Bit depth : 8 bits
Scan type : Progressive
Bits/(Pixel*Frame) : 0.130
Stream size : 3.09 GiB (83%)
Title : Making by 治祐韓彬 ☞ N.E.T.ism
Language : English
Default : Yes
Forced : No

Audio #1
ID : 2
Format : MPEG Audio
Format version : Version 1
Format profile : Layer 3
Muxing mode : Header stripping
Codec ID : A_MPEG/L3
Codec ID/Hint : MP3
Duration : 2h 4mn
Bit rate mode : Constant
Bit rate : 320 Kbps
Channel(s) : 2 channels
Sampling rate : 44.1 KHz
Compression mode : Lossy
Stream size : 285 MiB (7%)
Default : Yes
Forced : No

Audio #2
ID : 3
Format : AC-3
Format/Info : Audio Coding 3
Mode extension : CM (complete main)
Format settings, Endianness : Big
Muxing mode : Header stripping
Codec ID : A_AC3
Duration : 2h 4mn
Bit rate mode : Constant
Bit rate : 320 Kbps
Channel(s) : 2 channels
Channel positions : Front: L R
Sampling rate : 44.1 KHz
Bit depth : 16 bits
Compression mode : Lossy
Stream size : 285 MiB (7%)
Title : Making by 治祐韓彬 ☞ N.E.T.ism
Language : English
Default : No
Forced : No
Свернуть



Последний раз редактировалось Костян236 2013-07-21 17:21, всего редактировалось 1 раз.
Не в сети
Профиль  
 Добавлено: 2013-07-21 00:59 (спустя 1 час 12 минут)
Стаж: 5 лет 7 месяцев
Сообщений: 6
Спасибок: 2
дайте пиры
Не в сети
Профиль  
 Добавлено: 2013-07-21 07:54 (спустя 6 часов)
Модератор
Аватара пользователя
Стаж: 8 лет 11 месяцев
Сообщений: 516
Спасибок: 26888
Лайков: 1
Отчет MediaInfo. Скриншоты должны быть в png.
Не в сети
Профиль  
 Добавлено: 2013-08-04 22:14 (спустя 14 дней)
Модератор
Аватара пользователя
Стаж: 8 лет 11 месяцев
Сообщений: 516
Спасибок: 26888
Лайков: 1
viewtopic.php?f=1750&t=514714
Не в сети
Профиль  
Начать новую темуОтветить на тему  [ Сообщений: 4 ] 
Вы не можете начинать темы
Вы не можете отвечать на сообщения
Вы не можете редактировать свои сообщения
Вы не можете удалять свои сообщения