Правила форума

Здесь находятся раздачи, на которых не было полного источника (сида) более месяца.
Вы можете вернуть релиз в соответствующий раздел, для этого напишите нам в специальной теме и встаньте на раздачу.
Новые релизы, повторяющие релизы в архиве, повторами не считаются.
Начать новую темуОтветить на тему  [ Сообщений: 2 ] 
Сообщения
 Добавлено: 2013-07-24 08:29
Модератор
Аватара пользователя
Стаж: 8 лет 1 месяц
Возраст: 20
Сообщений: 32130
Спасибок: 98573
Лайков: 80
Обливион \ Oblivion

Изображение

Страна: США, Chernin Entertainment, Ironhead Studios, Radical Pictures, Radical Studios, Truenorth Productions, Universal Pictures
Режиссер: Джозеф Косински
Жанр: Фантастика, боевик, триллер, приключения, антиутопия
Год выхода: 2013
Перевод: Любительский (одноголосый закадровый)

Русские субтитры: Нет

В ролях:

Том Круз, Ольга Куриленко, Морган Фримен, Андреа
Райзборо, Николай Костер-Валдау, Мелисса Лео, Зои
Белл, Эбигейл Лоу, Изабель Лоу, Дэвид Мэдисон

Описание:

Можно ли скучать по месту, в котором никогда не был,
мечтать о девушке, которую никогда не видел? Добро
пожаловать в будущее! Мы больше не можем называть
Землю своим домом. Мы выиграли войну, но не смогли
сохранить планету…

Качество видео: BDRip 1080p
Формат: MKV
Видео: MPEG-4 AVC, 8527 Кбит/с, 1920x808, 23.976 кадр/с
Аудио: Русский (AC3, 2 ch, 192 Кбит/с), английский (DTS, 6 ch, 1510 Кбит/с)
Скриншоты:
Cкрытый текст
Изображение

Изображение

Изображение

Изображение

Изображение
Свернуть
MI
Полное имя : D:\Oblivion.2013.BDRip.AVC.1080p.mkv
Формат : Matroska
Версия формата : Version 4 / Version 2
Размер файла : 8,91 Гбайт
Продолжительность : 2 ч. 4 м.
Общий поток : 10,2 Мбит/сек
Дата кодирования : UTC 2010-02-22 21:41:31
Программа кодирования : mkvmerge v5.9.0 ('On The Loose') built on Dec 9 2012 15:37:01
Библиотека кодирования : libebml v1.3.0 + libmatroska v1.4.0

Видео
Идентификатор : 1
Формат : AVC
Формат/Информация : Advanced Video Codec
Профиль формата : High@L4.1
Параметр CABAC формата : Да
Параметр ReFrames формата : 5 кадров
Идентификатор кодека : V_MPEG4/ISO/AVC
Продолжительность : 2 ч. 4 м.
Битрейт : 8527 Кбит/сек
Ширина : 1920 пикселей
Высота : 808 пикселей
Соотношение сторон : 2,40:1
Режим частоты кадров : Постоянный
Частота кадров : 23,976 кадра/сек
Цветовое пространство : YUV
Субдискретизация насыщенности : 4:2:0
Битовая глубина : 8 бит
Тип развёртки : Прогрессивная
Бит/(Пиксели*Кадры) : 0.229
Размер потока : 7,25 Гбайт (81%)
Библиотека кодирования : x264 core 133 r2334 a3ac64b
Настройки программы : cabac=1 / ref=5 / deblock=1:0:0 / analyse=0x3:0x133 / me=umh / subme=7 / psy=1 / psy_rd=1.00:0.00 / mixed_ref=1 / me_range=16 / chroma_me=1 / trellis=1 / 8x8dct=1 / cqm=0 / deadzone=21,11 / fast_pskip=0 / chroma_qp_offset=-2 / threads=18 / lookahead_threads=3 / sliced_threads=0 / nr=0 / decimate=1 / interlaced=0 / bluray_compat=0 / constrained_intra=0 / bframes=3 / b_pyramid=2 / b_adapt=1 / b_bias=0 / direct=1 / weightb=1 / open_gop=0 / weightp=2 / keyint=250 / keyint_min=23 / scenecut=40 / intra_refresh=0 / rc_lookahead=40 / rc=2pass / mbtree=1 / bitrate=8527 / ratetol=1.0 / qcomp=0.60 / qpmin=0 / qpmax=69 / qpstep=4 / cplxblur=20.0 / qblur=0.5 / ip_ratio=1.40 / aq=1:1.00
Язык : English
Default : Да
Forced : Да

Аудио #1
Идентификатор : 2
Формат : AC-3
Формат/Информация : Audio Coding 3
Расширение режима : CM (complete main)
Параметр Endianness формата : Big
Идентификатор кодека : A_AC3
Продолжительность : 2 ч. 4 м.
Вид битрейта : Постоянный
Битрейт : 192 Кбит/сек
Каналы : 2 канала
Расположение каналов : Front: L R
Частота : 48,0 КГц
Битовая глубина : 16 бит
Метод сжатия : С потерями
Размер потока : 171 Мбайт (2%)
Заголовок : den904
Язык : Russian
Default : Да
Forced : Да

Аудио #2
Идентификатор : 3
Формат : DTS
Формат/Информация : Digital Theater Systems
Режим : 16
Параметр Endianness формата : Big
Идентификатор кодека : A_DTS
Продолжительность : 2 ч. 4 м.
Вид битрейта : Постоянный
Битрейт : 1509 Кбит/сек
Каналы : 6 каналов
Расположение каналов : Front: L C R, Side: L R, LFE
Частота : 48,0 КГц
Битовая глубина : 24 бит
Метод сжатия : С потерями
Размер потока : 1,31 Гбайт (15%)
Язык : English
Default : Нет
Forced : Нет

Текст
Идентификатор : 4
Формат : UTF-8
Идентификатор кодека : S_TEXT/UTF8
Идентификатор кодека/Информация : UTF-8 Plain Text
Язык : English
Default : Нет
Forced : Нет

Меню
00:00:00.000 : en:00:00:00.000
00:04:31.354 : en:00:04:31.354
00:12:51.813 : en:00:12:51.813
00:21:25.284 : en:00:21:25.284
00:27:20.138 : en:00:27:20.138
00:35:30.337 : en:00:35:30.337
00:40:06.779 : en:00:40:06.779
00:46:16.023 : en:00:46:16.023
00:52:22.181 : en:00:52:22.181
01:01:59.716 : en:01:01:59.716
01:07:59.409 : en:01:07:59.409
01:16:25.831 : en:01:16:25.831
01:22:08.173 : en:01:22:08.173
01:25:31.752 : en:01:25:31.752
01:30:22.542 : en:01:30:22.542
01:36:30.368 : en:01:36:30.368
01:40:29.106 : en:01:40:29.106
01:46:27.423 : en:01:46:27.423
01:53:05.320 : en:01:53:05.320
01:58:23.847 : en:01:58:23.847
Свернуть
Не в сети
Профиль  
 Добавлено: 2013-08-04 22:14 (спустя 11 дней)
Модератор
Аватара пользователя
Стаж: 8 лет 11 месяцев
Сообщений: 516
Спасибок: 26888
Лайков: 1
viewtopic.php?f=1750&t=514714
Не в сети
Профиль  
Начать новую темуОтветить на тему  [ Сообщений: 2 ] 
Вы не можете начинать темы
Вы не можете отвечать на сообщения
Вы не можете редактировать свои сообщения
Вы не можете удалять свои сообщения