Правила форума

Здесь находятся раздачи, на которых не было полного источника (сида) более месяца.
Вы можете вернуть релиз в соответствующий раздел, для этого напишите нам в специальной теме и встаньте на раздачу.
Новые релизы, повторяющие релизы в архиве, повторами не считаются.
Начать новую темуОтветить на тему  [ Сообщений: 7 ] 
Сообщения
 Добавлено: 2011-12-27 15:46
Модератор релиз-группы
Аватара пользователя
Стаж: 9 лет 1 месяц
Возраст: 97
Сообщений: 11659
Спасибок: 6531
Лайков: 269
Обмануть всех / I Spy

Изображение


Год выпуска: 2002
Страна: США
Жанр: Комедия, боевик, приключения
Продолжительность: 01:32:37
Перевод: Профессиональный (полное дублирование)

Режиссер: Бетти Томас

В ролях: Эдди Мерфи, Оуэн Уилсон, Фамке Янсен, Малколм МакДауэлл, Гари Коул, Фил Льюис

Описание: Мир организованной преступности бросает новый вызов. Похищен новейший самолет-невидимка, и правительство США посылает команду из двух непобедимых бойцов — суперагента Алекса Скотта и чемпиона по боксу Келли Робинсона. Необходимо во что бы то ни стало вернуть попавший в руки Арнольда Гундарса, подпольного торговца элитным вооружением, прототип истребителя нового поколения и сделать это до того, как он станет смертельной игрушкой в руках злодеев. Для этого нужно проникнуть в логово Гундарса. Прикрытием для выполнения этой отчаянной миссии должен послужить бой между Робинсоном и действующим европейским чемпионом. Чтобы удачно справиться с заданием, недостаточно просто обмануть всех — нужно для начала найти общий язык с напарником! В конце концов, все противоречия удается преодолеть, и впереди остается только одна цель — не дать взлететь "Стэлсу", снаряженному ядерным зарядом. Ради этого Келли и Алекс не остановятся ни перед чем!

Изображение

Качество: HDTV
Формат: m2ts
Видео кодек: H.264
Аудио кодек: AC3
Видео: 1920x1080i, 25 fps, ~7 776 kbs
Аудио: Русский AC3, 6ch, 448 Kbps
скриншоты
Изображение

Изображение

Изображение

Изображение
Свернуть
Mi
Format : m2ts
File size : 5.12 GiB
Duration : 1h 32mn
Overall bit rate : 7 941 Kbps
Maximum Overall bit rate : 35.5 Mbps

Video
ID : 4113 (0x1011)
Menu ID : 1 (0x1)
Format : AVC
Format/Info : Advanced Video Codec
Format profile : Main@L4.1
Format settings, CABAC : Yes
Format settings, ReFrames : 4 frames
Format settings, GOP : M=4, N=32
Codec ID : 27
Duration : 1h 32mn
Bit rate mode : Variable
Bit rate : 7 170 Kbps
Maximum bit rate : 40.0 Mbps
Width : 1 920 pixels
Height : 1 080 pixels
Display aspect ratio : 16:9
Frame rate : 25.000 fps
Color space : YUV
Chroma subsampling : 4:2:0
Bit depth : 8 bits
Scan type : Interlaced
Scan order : Top Field First
Bits/(Pixel*Frame) : 0.138
Stream size : 4.62 GiB (90%)
Color primaries : BT.709-5, BT.1361, IEC 61966-2-4, SMPTE RP177
Transfer characteristics : BT.709-5, BT.1361
Matrix coefficients : BT.709-5, BT.1361, IEC 61966-2-4 709, SMPTE RP177

Audio
ID : 4352 (0x1100)
Menu ID : 1 (0x1)
Format : AC-3
Format/Info : Audio Coding 3
Mode extension : CM (complete main)
Codec ID : 129
Duration : 1h 32mn
Bit rate mode : Constant
Bit rate : 448 Kbps
Channel(s) : 6 channels
Channel positions : Front: L C R, Side: L R, LFE
Sampling rate : 48.0 KHz
Bit depth : 16 bits
Compression mode : Lossy
Delay relative to video : 66ms
Stream size : 296 MiB (6%)
Language : Russian

Свернуть
_________________
Изображение
Не в сети
Профиль  
 Добавлено: 2012-01-02 20:05 (спустя 6 дней)
Аватара пользователя
Стаж: 8 лет 5 месяцев
Сообщений: 93
уж очень уж хилый вариант HDTV. Я бы его честно бы Рипом назвал. В принципе, Запорожец тоже машина.. :hi_hi_hi:
А фильм - неплохой, только у меня он как-то по-другому называется. :a_g_a: .
Не в сети
Профиль  
 Добавлено: 2012-01-02 21:34 (спустя 1 час 28 минут)
Модератор релиз-группы
Аватара пользователя
Стаж: 9 лет 1 месяц
Возраст: 97
Сообщений: 11659
Спасибок: 6531
Лайков: 269

jklon:

у меня он как-то по-другому называется
дай отгадаю
:hi_hi_hi:
Я шпион
Свернуть
_________________
Изображение
Не в сети
Профиль  
 Добавлено: 2012-01-06 19:44 (спустя 3 дня)
Аватара пользователя
Стаж: 8 лет 1 месяц
Возраст: 32
Сообщений: 496
Спасибок: 737
Спасибо за релиз. Только огромная просьба выкладывать релизы в mkv 4.1
Иначе можно было делать remux
А этот релиз придется кодировать в mkv, чтобы на телеке посмотреть ((((
Не в сети
Профиль  
 Добавлено: 2012-01-06 22:12 (спустя 2 часа 28 минут)
Аватара пользователя
Стаж: 8 лет 1 месяц
Возраст: 32
Сообщений: 496
Спасибок: 737
К сожалению, даже прога не помогла.
Не судьба. Спасибо за релиз !!!
Не в сети
Профиль  
 Добавлено: 2012-01-06 22:48 (спустя 35 минут)
Модератор релиз-группы
Аватара пользователя
Стаж: 9 лет 1 месяц
Возраст: 97
Сообщений: 11659
Спасибок: 6531
Лайков: 269

blackraven:

в mkv
не надо перепаковывать
просто переименуй и вперёд !!! :a_g_a:
_________________
Изображение
Не в сети
Профиль  
 Добавлено: 2012-01-07 13:53 (спустя 15 часов)
Аватара пользователя
Стаж: 8 лет 1 месяц
Возраст: 32
Сообщений: 496
Спасибок: 737
Спасибо! Попробую...
Не в сети
Профиль  
Начать новую темуОтветить на тему  [ Сообщений: 7 ] 
Вы не можете начинать темы
Вы не можете отвечать на сообщения
Вы не можете редактировать свои сообщения
Вы не можете удалять свои сообщения