Правила форума

Здесь находятся раздачи, на которых не было полного источника (сида) более месяца.
Вы можете вернуть релиз в соответствующий раздел, для этого напишите нам в специальной теме и встаньте на раздачу.
Новые релизы, повторяющие релизы в архиве, повторами не считаются.
Начать новую темуОтветить на тему  [ Сообщений: 9 ] 
Сообщения
 Добавлено: 2011-09-16 18:55
Top-releaser
Аватара пользователя
Стаж: 8 лет 9 месяцев
Сообщений: 479
Спасибок: 20187
Лайков: 16
Охотники на троллей

Trolljegeren

«You'll believe it when you see it!»

Изображение


Год выпуска: 2010
Страна: Изображение Норвегия; Film Fund FUZZ, Filmkameratene A/S
Жанр: Триллер, драма, приключения
Продолжительность: 01:43:55
Перевод: Профессиональный (полное дублирование) + Оригинал


Режиссёр: Андре Овредаль / Andre Ovredal

В ролях: Отто Есперсен, Ганс Мортен Хансен, Томас Альф Ларсен, Джоанна Морк, Роберт Столтенберг, Гленн Эрланд Тостеруд

Описание: Группа студентов узнаёт, что правительство скрывает от широких масс информацию о существовании троллей на севере Норвегии. Отважные ребята и девушки самостоятельно с помощью подручных средств уничтожают великанов, представляющих огромную опасность.


Качество: BDRip 1080p R5
Формат: MKV

Видео: MPEG4 Video (H264) 1920x1078 23.98fps

Аудио 1: DTS, 6 ch, 768 Кбит/с (Русский)
Аудио 2: DTS, 6 ch, 1536 Кбит/с (Оригинал)
Раздача: Изображение

Изображение
MediaInfo

Общее
Уникальный идентификатор : 227117935040279113118668423508598022020 (0xAADD52BD3EACD331B5539C9AA1395F84)
Полное имя : C:\Users\Домашний\Desktop\Ohotniki na trollei 2010.BDRip(1080p)[nntt].mkv
Формат : Matroska
Размер файла : 9,25 Гбайт
Продолжительность : 1 ч. 43 м.
Общий поток : 12,7 Мбит/сек
Название фильма : --SCHUMAHER--
Дата кодирования : UTC 2011-09-16 12:05:26
Программа кодирования : mkvmerge v4.9.1 ('Ich will') сборка от Jul 11 2011 23:53:15
Библиотека кодирования : libebml v1.2.1 + libmatroska v1.1.1

Видео
Идентификатор : 1
Формат : AVC
Формат/Информация : Advanced Video Codec
Профиль формата : High@L4.1
Параметр CABAC формата : Да
Параметр ReFrames формата : 4 кадры
Идентификатор кодека : V_MPEG4/ISO/AVC
Продолжительность : 1 ч. 43 м.
Битрейт : 10,5 Мбит/сек
Ширина : 1920 пикс.
Высота : 1078 пикс.
Соотношение сторон : 16:9
Частота кадров : 23,976 кадр/сек
Цветовое пространство : YUV
Подвыборка цветности : 4:2:0
Битовая глубина : 8 бит
Тип развёртки : Прогрессивная
Бит/(Пиксели*Кадры) : 0.212
Размер потока : 7,43 Гбайт (80%)
Библиотека кодирования : x264 core 115 r2008 4c552d8
Настройки программы : cabac=1 / ref=4 / deblock=1:-3:-3 / analyse=0x3:0x113 / me=umh / subme=10 / psy=1 / psy_rd=1.10:0.15 / mixed_ref=1 / me_range=32 / chroma_me=1 / trellis=2 / 8x8dct=1 / cqm=2 / deadzone=21,11 / fast_pskip=0 / chroma_qp_offset=-2 / threads=6 / sliced_threads=0 / nr=0 / decimate=1 / interlaced=0 / bluray_compat=0 / constrained_intra=0 / bframes=6 / b_pyramid=2 / b_adapt=2 / b_bias=0 / direct=3 / weightb=1 / open_gop=0 / weightp=2 / keyint=250 / keyint_min=23 / scenecut=40 / intra_refresh=0 / rc_lookahead=60 / rc=2pass / mbtree=1 / bitrate=10536 / ratetol=1.0 / qcomp=0.60 / qpmin=1 / qpmax=63 / qpstep=4 / cplxblur=20.0 / qblur=0.5 / vbv_maxrate=40000 / vbv_bufsize=30000 / nal_hrd=none / ip_ratio=1.40 / aq=1:0.80
Язык : English

Аудио #1
Идентификатор : 2
Формат : DTS
Формат/Информация : Digital Theater Systems
Идентификатор кодека : A_DTS
Продолжительность : 1 ч. 43 м.
Вид битрейта : Постоянный
Битрейт : 755 Кбит/сек
Канал(ы) : 6 канала(ов)
Расположение каналов : Front: L C R, Side: L R, LFE
Частота : 48,0 КГц
Битовая глубина : 16 бит
Метод сжатия : С потерями
Размер потока : 561 Мбайт (6%)
Язык : Russian

Аудио #2
Идентификатор : 3
Формат : DTS
Формат/Информация : Digital Theater Systems
Идентификатор кодека : A_DTS
Продолжительность : 1 ч. 43 м.
Вид битрейта : Постоянный
Битрейт : 1510 Кбит/сек
Канал(ы) : 6 канала(ов)
Расположение каналов : Front: L C R, Side: L R, LFE
Частота : 48,0 КГц
Битовая глубина : 24 бит
Метод сжатия : С потерями
Размер потока : 1,10 Гбайт (12%)
Язык : English
Свернуть
Скриншоты
Изображение
Изображение
Изображение
Изображение
Изображение
Свернуть
_________________
Изображение
Изображение
Не в сети
Профиль  
 Добавлено: 2011-09-16 21:15 (спустя 2 часа 20 минут)
Пользователь забанен
Аватара пользователя
Стаж: 8 лет 3 месяца
Сообщений: 34
Это ТВ3?
Не в сети
Профиль  
 Добавлено: 2011-09-17 23:37 (спустя 1 день 2 часа)
Аватара пользователя
Стаж: 8 лет 3 месяца
Возраст: 43
Сообщений: 3290
Спасибок: 21012
Лайков: 3

Димулько:

Это ТВ3?
бюджет конечно не огромный,... но и не для ТВ :) Прикольный фильм, Для меня - что-то новое :co_ol:
http://www.kinopoisk.ru/level/1/film/569576/
_________________
Изображение
Не в сети
Профиль  
 Добавлено: 2011-09-18 09:29 (спустя 9 часов)
Стаж: 7 лет 1 месяц
Сообщений: 21
Мне понравилось, красивый фильм
Не в сети
Профиль  
 Добавлено: 2011-09-18 19:59 (спустя 10 часов)
Русские витязи
Аватара пользователя
Стаж: 9 лет 1 месяц
Сообщений: 429
Лайков: 6
не телике не идет,пишет формат файла не поддерживается.хотя жевал MKV до этого
Не в сети
Профиль  
 Добавлено: 2011-09-19 18:33 (спустя 22 часа)
Кинокомментатор
Аватара пользователя
Стаж: 9 лет
Сообщений: 1331
Лайков: 52
мне кино понравилось:) я даже почти поверил:) не много наивно) но жизненно;)
всё довольно красиво! колоритно!) интересно:) мне нравилось пока я смотрел:)
7.5/10
_________________
Я ВКонтакте
Не в сети
Профиль  
 Добавлено: 2011-09-20 18:57 (спустя 1 день)
Аватара пользователя
Стаж: 8 лет 7 месяцев
Сообщений: 10

darkzon:

не телике не идет,пишет формат файла не поддерживается.хотя жевал MKV до этого
скорее всего в контейнере сжаты заголовки, надо скачать mkvmerge GUI 3.0 и мультиплексировать через него (в версии 3.0 по умолчанию отключено сжатие заголовков).у меня 90% прокатывает
Не в сети
Профиль  
 Добавлено: 2011-09-26 00:51 (спустя 5 дней)
Аватара пользователя
Стаж: 8 лет 6 месяцев
Сообщений: 478
Спасибок: 365
Это походу про работу модераторов :-D
Не в сети
Профиль  
 Добавлено: 2011-10-16 16:00 (спустя 20 дней)
Аватара пользователя
Стаж: 8 лет 11 месяцев
Сообщений: 170
Спасибок: 139
есть такая работа - норвегию от троллей защищать)
фильм понравился, хорошая псевдореалистика
Не в сети
Профиль  
Начать новую темуОтветить на тему  [ Сообщений: 9 ] 
Вы не можете начинать темы
Вы не можете отвечать на сообщения
Вы не можете редактировать свои сообщения
Вы не можете удалять свои сообщения