Правила форума

Здесь находятся раздачи, на которых не было полного источника (сида) более месяца.
Вы можете вернуть релиз в соответствующий раздел, для этого напишите нам в специальной теме и встаньте на раздачу.
Новые релизы, повторяющие релизы в архиве, повторами не считаются.
Начать новую темуОтветить на тему  [ Сообщений: 8 ] 
Сообщения
 Добавлено: 2013-05-20 11:42
Руководитель релиз-группы
Аватара пользователя
Стаж: 7 лет 4 месяца
Возраст: 31
Сообщений: 3407
Спасибок: 46728
Лайков: 5
Изображение

Охотники на ведьм
Hansel & Gretel: Witch Hunters


Год выпуска: 2013
Страна: США, Германия
Слоган: «Новый поворот старой истории»
Жанр: ужасы, фэнтези, боевикслова
Продолжительность: 01:27:56
Перевод: Профессиональный (полное дублирование)
Режиссер: Томми Виркола
Сценарий: Томми Виркола
Продюсер: Уилл Феррелл, Бо Флинн, Крис Хенчи, Адам МакКей, Кевин Дж. Мессик
Оператор: Майкл Бонвилейн
Композитор: Этли Орварссон
В ролях: Джереми Реннер, Джемма Артертон, Фамке Янссен, Пихла Виитала, Дерек Мирс, Робин Аткин Даунс, Ингрид Болсай Бердал, Джоэнна Кулиг, Томас Манн, Петер Стормаре, Бьорн Сундквист, Райнер Бок
Бюджет: $50 000 000
Сборы в США: $55 703 475
Сборы в России: $18 966 267
Сборы в мире: $223 903 475
Описание: Едва не погибнув в лапах ужасной ведьмы, Гензель и Гретель стали только сильнее. Одержимые местью, они ведут отчаянную борьбу со злом, даже не подозревая, что их поджидает нечто куда более опасное... собственное прошлое...
Изображение
MPAA: Изображение
Мировая премьера: 19 января 2013
Релиз на DVD: 10 июня 2013, «Новый Диск»
Релиз на Blu-ray: 10 июня 2013, «Новый Диск»
Раздача группы: Изображение
Качество: BDRip, 1080p
Формат: MKV
Видео: AVC; 1920x806 (2.35:1); 10043 Kbps; 23,976 fps; 0,271 bit/pixel
Аудио №1: AC3; 640 Kbps; CBR; 6 ch Russian
Аудио №2: AC3; 640 Kbps; CBR; 6 ch English
Субтитры: русские
спектр звука
Изображение
исходник Русский (DTS-HD MA, 6 ch, 3601 Кбит/с)
Свернуть
mediainfo
Формат : Matroska
Версия формата : Version 2
Размер файла : 7,10 Гбайт
Продолжительность : 1 ч. 27 м.
Общий поток : 11,6 Мбит/сек
Название фильма : Охотники на ведьм (MediaClub-kaspr)
Дата кодирования : UTC 2013-05-20 02:58:38
Программа кодирования : mkvmerge v5.7.0 ('The Whirlwind') built on Aug 7 2012 14:11:40
Библиотека кодирования : libebml v1.2.3 + libmatroska v1.3.0

Видео
Идентификатор : 1
Формат : AVC
Формат/Информация : Advanced Video Codec
Профиль формата : High@L4.1
Параметр CABAC формата : Да
Параметр ReFrames формата : 5 кадров
Идентификатор кодека : V_MPEG4/ISO/AVC
Продолжительность : 1 ч. 27 м.
Битрейт : 10,3 Мбит/сек
Ширина : 1920 пикселей
Высота : 806 пикселей
Соотношение сторон : 2,40:1
Частота кадров : 23,976 кадра/сек
Цветовое пространство : YUV
Субдискретизация насыщенности : 4:2:0
Битовая глубина : 8 бит
Тип развёртки : Прогрессивная
Бит/(Пиксели*Кадры) : 0.277
Размер потока : 6,17 Гбайт (87%)
Заголовок : Охотники на ведьм (MediaClub-kaspr)
Библиотека кодирования : x264 core 130 r2273 b3065e6
Настройки программы : cabac=1 / ref=5 / deblock=1:-3:-3 / analyse=0x3:0x133 / me=umh / subme=11 / psy=1 / psy_rd=1.00:0.10 / mixed_ref=1 / me_range=32 / chroma_me=1 / trellis=2 / 8x8dct=1 / cqm=0 / deadzone=21,11 / fast_pskip=0 / chroma_qp_offset=-3 / threads=12 / lookahead_threads=1 / sliced_threads=0 / nr=0 / decimate=0 / interlaced=0 / bluray_compat=0 / constrained_intra=0 / bframes=6 / b_pyramid=2 / b_adapt=2 / b_bias=0 / direct=3 / weightb=1 / open_gop=0 / weightp=2 / keyint=240 / keyint_min=22 / scenecut=40 / intra_refresh=0 / rc=2pass / mbtree=0 / bitrate=10274 / ratetol=1.0 / qcomp=0.60 / qpmin=0 / qpmax=69 / qpstep=4 / cplxblur=20.0 / qblur=0.5 / ip_ratio=1.40 / pb_ratio=1.30 / aq=1:1.00

Аудио #1
Идентификатор : 2
Формат : AC-3
Формат/Информация : Audio Coding 3
Расширение режима : CM (complete main)
Идентификатор кодека : A_AC3
Продолжительность : 1 ч. 27 м.
Вид битрейта : Постоянный
Битрейт : 640 Кбит/сек
Каналы : 6 каналов
Расположение каналов : Front: L C R, Side: L R, LFE
Частота : 48,0 КГц
Битовая глубина : 16 бит
Метод сжатия : С потерями
Размер потока : 403 Мбайт (6%)
Заголовок : Дубляж
Язык : Russian

Аудио #2
Идентификатор : 3
Формат : AC-3
Формат/Информация : Audio Coding 3
Расширение режима : CM (complete main)
Идентификатор кодека : A_AC3
Продолжительность : 1 ч. 27 м.
Вид битрейта : Постоянный
Битрейт : 640 Кбит/сек
Каналы : 6 каналов
Расположение каналов : Front: L C R, Side: L R, LFE
Частота : 48,0 КГц
Битовая глубина : 16 бит
Метод сжатия : С потерями
Размер потока : 403 Мбайт (6%)
Заголовок : Оригинал
Язык : English

Текст
Идентификатор : 4
Формат : UTF-8
Идентификатор кодека : S_TEXT/UTF8
Идентификатор кодека/Информация : UTF-8 Plain Text
Язык : Russian

Меню
00:00:00.000 : en:Chapter 01
00:05:00.000 : en:Chapter 02
00:10:00.000 : en:Chapter 03
00:15:00.000 : en:Chapter 04
00:20:00.000 : en:Chapter 05
00:25:00.000 : en:Chapter 06
00:30:00.000 : en:Chapter 07
00:35:00.000 : en:Chapter 08
00:40:00.000 : en:Chapter 09
00:45:00.000 : en:Chapter 10
00:50:00.000 : en:Chapter 11
00:55:00.000 : en:Chapter 12
01:00:00.000 : en:Chapter 13
01:05:00.000 : en:Chapter 14
01:10:00.000 : en:Chapter 15
01:15:00.000 : en:Chapter 16
01:20:00.000 : en:Chapter 17
01:25:00.000 : en:Chapter 18

Свернуть
"Знаете ли Вы, что..."
  • Первоначально на роль Гретель пробовались Дайан Крюгер, Ева Грин и Нуми Рапас.
  • В своем интервью на фестивале в Каннах в 2011 году Фамке Янссен заявила, что она согласилась на роль предводительницы ведьм, потому что ей нужно было выплачивать долги. Янссен неоднократно упоминала, начиная с 2007 года, что готовит фильм «Плохая мамочка» (2011), где она дебютировала как режиссер/сценарист. Финансирование и распространение фильма пережили нелегкие времена, отчасти из-за экономического кризиса 2008 года. К тому же она практически нигде не снималась в тот период.
Свернуть
Скриншоты

Изображение

Изображение

Изображение

Изображение

Изображение
Свернуть
Не в сети
Профиль  
 Добавлено: 2013-05-20 18:00 (спустя 6 часов)
Аватара пользователя
Стаж: 9 лет
Сообщений: 167
Спасибок: 38
выложите в полном формате фул ашди
Не в сети
Профиль  
 Добавлено: 2013-05-20 22:42 (спустя 4 часа)
Стаж: 8 лет 11 месяцев
Сообщений: 44
Спасибок: 2
Лайков: 1
а с этой дорогой DTS пойдет это кино? http://rutracker.org/forum/viewtopic.php?t=4442364
Не в сети
Профиль  
 Добавлено: 2013-05-22 21:36 (спустя 1 день 22 часа)
Стаж: 7 лет 3 месяца
Сообщений: 6
Спасибок: 12
:-ok-:
Не в сети
Профиль  
 Добавлено: 2013-05-24 19:28 (спустя 1 день 21 час)
Аватара пользователя
Стаж: 8 лет
Сообщений: 140
Спасибок: 51
заценим
_________________
Изображение 6 мB/s Изображение 600 kB/s
Изображение
Не в сети
Профиль  
 Добавлено: 2013-05-25 07:36 (спустя 12 часов)
Аватара пользователя
Стаж: 7 лет 7 месяцев
Сообщений: 165
Спасибок: 333
спасибо маан))))))))))))))
Не в сети
Профиль  
 Добавлено: 2013-05-31 19:14 (спустя 6 дней)
Аватара пользователя
Стаж: 4 года 10 месяцев
Сообщений: 67
разок можно поглядеть
Не в сети
Профиль  
 Добавлено: 2013-06-06 20:46 (спустя 6 дней)
Модератор
Аватара пользователя
Стаж: 8 лет 11 месяцев
Сообщений: 516
Спасибок: 26888
Лайков: 1
viewtopic.php?f=1750&t=510319
Не в сети
Профиль  
Начать новую темуОтветить на тему  [ Сообщений: 8 ] 
Вы не можете начинать темы
Вы не можете отвечать на сообщения
Вы не можете редактировать свои сообщения
Вы не можете удалять свои сообщения