Правила форума

Здесь находятся раздачи, на которых не было полного источника (сида) более месяца.
Вы можете вернуть релиз в соответствующий раздел, для этого напишите нам в специальной теме и встаньте на раздачу.
Новые релизы, повторяющие релизы в архиве, повторами не считаются.
Начать новую темуОтветить на тему  [ Сообщений: 5 ] 
Сообщения
 Добавлено: 2013-10-14 18:26
DVD Release Group
Аватара пользователя
Стаж: 7 лет 1 месяц
Сообщений: 3559
Спасибок: 247463
Лайков: 1020
Орудия смерти: Город костей

The Mortal Instruments:​ City of Bones


Изображение



Год выпуска: 2013
Страна: Канада, Германия
Жанр: Фэнтези, боевик, драма, мелодрама, детектив, приключения
Продолжительность: 02:09:55
Перевод: Любительский (многоголосный)
Субтитры: Нет
Режиссер: Харольд Цварт
В ролях: Лина Хиди, Лили Коллинз, Джейми Кэмпбелл Бауэр, Джонатан Риз Майерс, Роберт Шиэн, Эйдан Тернер, Джаред Харрис, Кевин Зегерс, Кевин Дюран, Джемима Уэст
Описание: Действие первоисточника разворачивается в Нью-Йорке наших дней. С первого взгляда обыкновенная девушка Клэри Фрей узнаёт, что принадлежит к древнему роду Сумеречных Охотников — тайной касте воинов, защищающих наш мир от демонических поползновений. Когда исчезает матушка Клэри, то главная героиня вместе с группой отчаянных и юных Охотников отправляется на поиски приключений, которые приводят её к зловредным феям, эксцентричным колдунам, бандам оборотней и другим странным существам.
Изображение
Качество: BDRip 720p
Формат: MKV
Видео кодек: H.264
Аудио кодек: AC3, DTS
Видео: 1280x544 23.98fps 4002Kbps
Аудио:
Аудио Rus: AC3 48kHz 6ch 448kbps
Аудио Eng: DTS 48kHz 6ch 1510kbps
"MediaInfo"
Формат : Matroska
Версия формата : Version 2
Размер файла : 5,41 Гбайт
Продолжительность : 2 ч. 9 м.
Общий поток : 5960 Кбит/сек
Дата кодирования : UTC 2013-10-14 08:18:34
Программа кодирования : mkvmerge v6.3.0 ('You can't stop me!') built on Jun 28 2013 20:09:41
Библиотека кодирования : libebml v1.3.0 + libmatroska v1.4.0

Видео
Идентификатор : 1
Формат : AVC
Формат/Информация : Advanced Video Codec
Профиль формата : High@L4.1
Параметр CABAC формата : Да
Параметр ReFrames формата : 10 кадров
Идентификатор кодека : V_MPEG4/ISO/AVC
Продолжительность : 2 ч. 9 м.
Битрейт : 4002 Кбит/сек
Ширина : 1280 пикселей
Высота : 544 пикселя
Соотношение сторон : 2,35:1
Частота кадров : 23,976 кадра/сек
Цветовое пространство : YUV
Субдискретизация насыщенности : 4:2:0
Битовая глубина : 8 бит
Тип развёртки : Прогрессивная
Бит/(Пиксели*Кадры) : 0.240
Размер потока : 3,52 Гбайт (65%)
Библиотека кодирования : x264 core 138 r2356 a1d3d17
Настройки программы : cabac=1 / ref=10 / deblock=1:-3:-3 / analyse=0x3:0x113 / me=umh / subme=10 / psy=1 / psy_rd=1.05:0.10 / mixed_ref=1 / me_range=32 / chroma_me=1 / trellis=2 / 8x8dct=1 / cqm=0 / deadzone=21,11 / fast_pskip=0 / chroma_qp_offset=-2 / threads=18 / lookahead_threads=1 / sliced_threads=0 / nr=0 / decimate=1 / interlaced=0 / bluray_compat=0 / constrained_intra=0 / bframes=4 / b_pyramid=2 / b_adapt=2 / b_bias=0 / direct=3 / weightb=1 / open_gop=0 / weightp=2 / keyint=250 / keyint_min=23 / scenecut=40 / intra_refresh=0 / rc=2pass / mbtree=0 / bitrate=4002 / ratetol=1.0 / qcomp=0.70 / qpmin=0 / qpmax=69 / qpstep=4 / cplxblur=20.0 / qblur=0.5 / ip_ratio=1.40 / pb_ratio=1.30 / aq=2:1.00
Язык : English
Default : Да
Forced : Нет

Аудио #1
Идентификатор : 2
Формат : AC-3
Формат/Информация : Audio Coding 3
Расширение режима : CM (complete main)
Идентификатор кодека : A_AC3
Продолжительность : 2 ч. 9 м.
Вид битрейта : Постоянный
Битрейт : 448 Кбит/сек
Каналы : 6 каналов
Расположение каналов : Front: L C R, Side: L R, LFE
Частота : 48,0 КГц
Битовая глубина : 16 бит
Метод сжатия : С потерями
Размер потока : 416 Мбайт (8%)
Язык : Russian
Default : Да
Forced : Нет

Аудио #2
Идентификатор : 3
Формат : DTS
Формат/Информация : Digital Theater Systems
Идентификатор кодека : A_DTS
Продолжительность : 2 ч. 9 м.
Вид битрейта : Постоянный
Битрейт : 1510 Кбит/сек
Каналы : 6 каналов
Расположение каналов : Front: L C R, Side: L R, LFE
Частота : 48,0 КГц
Битовая глубина : 24 бит
Метод сжатия : С потерями
Размер потока : 1,37 Гбайт (25%)
Язык : English
Default : Нет
Forced : Нет
Свернуть

"Скриншоты"
Изображение
Изображение
Изображение
Изображение
Изображение
Изображение
Изображение
Изображение
Свернуть

Раздача группы:
Изображение
В сети
Профиль  
 Добавлено: 2013-10-15 22:24 (спустя 1 день 3 часа)
Стаж: 6 лет
Сообщений: 30
Лайков: 2
гарри поттер и мортал комбат
Не в сети
Профиль  
 Добавлено: 2013-10-16 07:22 (спустя 8 часов)
Аватара пользователя
Стаж: 7 лет 11 месяцев
Сообщений: 995
Лайков: 74

миг31:

гарри поттер и мортал комбат

ваще пц!!)
Не в сети
Профиль  
 Добавлено: 2013-11-01 15:45 (спустя 16 дней)
Стаж: 6 лет 8 месяцев
Сообщений: 19
Не качайте, качество видео и звука ну очень плохое
Не в сети
Профиль  
 Добавлено: 2013-11-19 19:33 (спустя 18 дней)
Модератор
Аватара пользователя
Стаж: 8 лет 11 месяцев
Сообщений: 516
Спасибок: 26888
Лайков: 1
viewtopic.php?f=1743&t=521549
Не в сети
Профиль  
Начать новую темуОтветить на тему  [ Сообщений: 5 ] 
Вы не можете начинать темы
Вы не можете отвечать на сообщения
Вы не можете редактировать свои сообщения
Вы не можете удалять свои сообщения