Правила форума

Здесь находятся раздачи, на которых не было полного источника (сида) более месяца.
Вы можете вернуть релиз в соответствующий раздел, для этого напишите нам в специальной теме и встаньте на раздачу.
Новые релизы, повторяющие релизы в архиве, повторами не считаются.
Начать новую темуОтветить на тему  [ Сообщений: 2 ] 
Сообщения
 Добавлено: 2013-03-15 11:29
Руководитель релиз-группы
Аватара пользователя
Стаж: 9 лет 1 месяц
Возраст: 28
Сообщений: 4244
Спасибок: 31994
Лайков: 32

Остин Пауэрс. Трилогия / Austin Powers. Trilogy

Остин Пауэрс: Человек-загадка международного масштаба / Austin Powers: International Man of Mystery
Изображение
Остин Пауэрс: Человек-загадка международного масштаба
Austin Powers: International Man of Mystery


«Debonair. Defiant. Defrosted.»


Год выпуска | 1997
Страна | США ∙ Германия
Жанр | комедия ∙ криминал
Продолжительность | 01:29:35
Перевод | Профессиональный (многоголосый, закадровый) ∙ Оригинальный ∙ Комментарии ∙ Субтитры (русские - форсированные, русские - полные, немецкие, английские, испанские)
Режиссер | Джей Роуч
Сценарий | Майк Майерс
Продюсер | Деми Мур ∙ Майк Майерс ∙ Дженнифер Тодд ∙ Сюзанн Тодд ∙ Эрик МакЛеод
Оператор | Питер Диминг
Композитор | Джордж С. Клинтон

В ролях | Майк Майерс (Austin Powers / Dr. Evil) ∙ Элизабет Херли (Vanessa Kensington) ∙ Майкл Йорк (Basil Exposition) ∙ Мими Роджерс (Mrs. Kensington) ∙ Роберт Вагнер (Number Two) ∙ Сет Грин (Scott Evil) ∙ Фабиана Уденио (Alotta Fagina) ∙ Минди Стерлинг (Frau Farbissina) ∙ Пол Диллон (Patty O'Brien) ∙ Чарльз Нэпьер (Cmdr. Gilmour) ∙ Уилл Феррелл (Mustafa) ∙ Джоан Рихтер ('60s Model) и др.
Описание | Мир в опасности: великий и ужасный Доктор Зло угрожает запустить ядерную ракету, требуя 100 миллиардов долларов! Но на каждого суперзлодея есть свой супергерой. Спустя 30 лет, проведенных в криогенной камере, неподражаемый Остин Пауэрс, лучший секретный агент Ее Величества и любимец всех женщин, разморожен и вновь готов к действиям! Вместе с напарницей, очаровательной Ванессой, он легко обойдет все хитроумные ловушки, расставленные коварным противником, и спасет человечество!
kinopoisk.ru | 6.674 (8561)
Бюджет | $16 500 000
Сборы в США | $53 883 989
Сборы в мире | $67 683 989
Мировая премьера | 2 мая 1997
Релиз на DVD | 30 июля 2009 ∙ «Азимут»
Знаете ли Вы, что...
  • Музыкальная тема к этому фильму и его продолжениям - «Soul Bossa Nova» Куинси Джонса. Однако, канадцам (в том числе и самому Майку Майерсу) она больше всего известна как тема долгоиграющего канадского игрового шоу «Definition».
Свернуть

Качество | BDRip 1080p
Контейнер | Matroska
Видео | AVC ∙ 1920x818 (2.35:1) ∙ 15279 kbps ∙ 23.976 fps
Аудио #1 | AC3 ∙ 448 kbps ∙ CBR ∙ 6 channels ∙ 16 bit /MVO/
Аудио #2 | DTS ∙ 1510 kbps ∙ CBR ∙ 6 channels ∙ 24 bit /ENG/
Аудио #3 | AAC LC ∙ 126 kbps ∙ 2 channels /COMM/

MediaInfo
General
Unique ID : 217645303276876695049506590524382841853 (0xA3BCF5EF5C90589888AACDC916EF0BFD)
Complete name : I:\films\Austin.Powers.Trilogy.BDRip.1080p\Austin.Powers.International.Man.of.Mystery.1997.BDRip.1080p.mkv
Format : Matroska
Format version : Version 4 / Version 2
File size : 10.9 GiB
Duration : 1h 29mn
Overall bit rate : 17.4 Mbps
Movie name : Austin Powers: International Man of Mystery (1997) - Release for HDCLUB by Skazhutin
Encoded date : UTC 2013-02-28 03:16:36
Writing application : mkvmerge v6.0.0 ('Coming Up For Air') built on Jan 20 2013 09:52:00
Writing library : libebml v1.3.0 + libmatroska v1.4.0
Attachment : Yes / Yes

Video
ID : 1
Format : AVC
Format/Info : Advanced Video Codec
Format profile : High@L4.1
Format settings, CABAC : Yes
Format settings, ReFrames : 5 frames
Codec ID : V_MPEG4/ISO/AVC
Duration : 1h 29mn
Width : 1 920 pixels
Height : 818 pixels
Display aspect ratio : 2.35:1
Frame rate : 23.976 fps
Color space : YUV
Chroma subsampling : 4:2:0
Bit depth : 8 bits
Scan type : Progressive
Title : Release for HDCLUB
Writing library : x264 core 129 r2245kMod bc13772
Encoding settings : cabac=1 / ref=5 / deblock=1:-3:-3 / analyse=0x3:0x113 / me=umh / subme=11 / psy=1 / fade_compensate=0.00 / psy_rd=1.00:0.00 / mixed_ref=1 / me_range=48 / chroma_me=1 / trellis=2 / 8x8dct=1 / cqm=0 / deadzone=21,11 / fast_pskip=1 / chroma_qp_offset=-2 / threads=12 / lookahead_threads=2 / sliced_threads=0 / nr=0 / decimate=1 / interlaced=0 / bluray_compat=0 / constrained_intra=0 / bframes=8 / b_pyramid=2 / b_adapt=2 / b_bias=0 / direct=3 / weightb=1 / open_gop=0 / weightp=2 / keyint=250 / keyint_min=23 / scenecut=40 / intra_refresh=0 / rc_lookahead=40 / rc=crf / mbtree=0 / crf=18.0000 / qcomp=0.70 / qpmin=0 / qpmax=69 / qpstep=4 / vbv_maxrate=50000 / vbv_bufsize=62500 / crf_max=0.0 / nal_hrd=none / ip_ratio=1.30 / pb_ratio=1.20 / aq=1:0.80
Language : English
Default : Yes
Forced : No
Matrix coefficients : BT.709-5, BT.1361, IEC 61966-2-4 709, SMPTE RP177

Audio #1
ID : 2
Format : AC-3
Format/Info : Audio Coding 3
Mode extension : CM (complete main)
Codec ID : A_AC3
Duration : 1h 29mn
Bit rate mode : Constant
Bit rate : 448 Kbps
Channel(s) : 6 channels
Channel positions : Front: L C R, Side: L R, LFE
Sampling rate : 48.0 KHz
Bit depth : 16 bits
Compression mode : Lossy
Stream size : 287 MiB (3%)
Title : AC3 5.1 @ 448 kbps - MVO, R5
Language : Russian
Default : Yes
Forced : No

Audio #2
ID : 3
Format : DTS
Format/Info : Digital Theater Systems
Codec ID : A_DTS
Duration : 1h 29mn
Bit rate mode : Constant
Bit rate : 1 510 Kbps
Channel(s) : 6 channels
Channel positions : Front: L C R, Side: L R, LFE
Sampling rate : 48.0 KHz
Bit depth : 24 bits
Compression mode : Lossy
Stream size : 967 MiB (9%)
Title : DTS 5.1 @ 1536 kbps
Language : English
Default : No
Forced : No

Audio #3
ID : 4
Format : AAC
Format/Info : Advanced Audio Codec
Format profile : LC
Codec ID : A_AAC
Duration : 1h 29mn
Channel(s) : 2 channels
Channel positions : Front: L R
Sampling rate : 48.0 KHz
Compression mode : Lossy
Delay relative to video : 9ms
Title : Commentary with Mike Myers and Jay Roach
Language : English
Default : No
Forced : No

Text #1
ID : 5
Format : UTF-8
Codec ID : S_TEXT/UTF8
Codec ID/Info : UTF-8 Plain Text
Title : forced for MVO
Language : Russian
Default : Yes
Forced : No

Text #2
ID : 6
Format : UTF-8
Codec ID : S_TEXT/UTF8
Codec ID/Info : UTF-8 Plain Text
Language : Russian
Default : No
Forced : No

Text #3
ID : 7
Format : UTF-8
Codec ID : S_TEXT/UTF8
Codec ID/Info : UTF-8 Plain Text
Language : Dutch
Default : No
Forced : No

Text #4
ID : 8
Format : UTF-8
Codec ID : S_TEXT/UTF8
Codec ID/Info : UTF-8 Plain Text
Language : English
Default : No
Forced : No

Text #5
ID : 9
Format : UTF-8
Codec ID : S_TEXT/UTF8
Codec ID/Info : UTF-8 Plain Text
Language : English
Default : No
Forced : No

Text #6
ID : 10
Format : UTF-8
Codec ID : S_TEXT/UTF8
Codec ID/Info : UTF-8 Plain Text
Language : Spanish
Default : No
Forced : No

Menu
00:00:00.000 : en:Prologue/Main Titles
00:05:21.236 : en:Dr. Evil Escapes
00:07:07.676 : en:Big Boy Descends
00:08:20.415 : en:A Hero Is Unthawed
00:13:37.316 : en:Danger Is My Middle Name
00:15:50.407 : en:Dr. Evil's Million Dollar Plan
00:22:57.334 : en:Austin's Groovy Jumbo Jet
00:25:41.706 : en:Scott Evil
00:27:17.010 : en:"Viva Las Vegas, Baby!"
00:29:28.516 : en:Living Dangerously
00:31:38.396 : en:Bathroom Break
00:34:20.558 : en:Dr. Evil's Ultimatum
00:36:13.629 : en:A Mother Daughter Talk
00:37:42.218 : en:Austin and Vanessa Hit the Town
00:42:53.737 : en:Austin Discovers Project Vulcan
00:47:40.690 : en:Fembots
00:49:29.007 : en:British Makeshift Headquarters
00:52:12.671 : en:Group Therapy
00:55:35.248 : en:Austin Catches Up to the 90's
00:58:55.698 : en:Welcome to Virtucon
01:02:18.151 : en:An Overly Elaborate Death?
01:10:14.501 : en:Austin vs. the Fembots
01:14:28.130 : en:The Final Showdown
01:19:53.787 : en:Epilogue/End Credits
Свернуть

Скриншоты

Изображение

Изображение

Изображение
Свернуть
Свернуть

Остин Пауэрс: Шпион, который меня соблазнил / Austin Powers: The Spy Who Shagged Me
Изображение
Остин Пауэрс: Шпион, который меня соблазнил
Austin Powers: The Spy Who Shagged Me


«First, he fought for the Crown. Now he's fighting for the Family Jewels.»


Год выпуска | 1999
Страна | США
Жанр | боевик ∙ комедия, криминал ∙ приключения
Продолжительность | 01:35:02
Перевод | Профессиональный (полное дублирование) ∙ Авторский (Живов Ю.) ∙ Оригинальный ∙ Комментарии ∙ Субтитры (русские, английские)
Режиссер | Джей Роуч
Сценарий | Майк Майерс ∙ Майкл МакКаллерс
Продюсер | Сюзанн Тодд ∙ Джон С. Лайонс ∙ Эрик МакЛеод ∙ Деми Мур ∙ Майк Майерс
Оператор | Юли Штайгер
Композитор | Джордж С. Клинтон

В ролях | Майк Майерс (Austin Powers / Dr. Evil / Fat Bastard) ∙ Хэзер Грэм (Felicity Shagwell) ∙ Майкл Йорк (Basil Exposition) ∙ Роберт Вагнер (Number Two) ∙ Роб Лоу (Young Number Two) ∙ Сет Грин (Scott Evil) ∙ Минди Стерлинг (Frau Farbissina) ∙ Верн Тройер (Mini-Me) ∙ Элизабет Херли (Vanessa Kensington) ∙ Джиа Каридес (Robin Swallows) ∙ Оливер Мюрхэд (British Colonel) ∙ Джордж Чунг (Chinese Teacher) и др.
Дублёры | Леонид Белозорович (Austin Powers / Dr. Evil / Fat Bastard) ∙ Андрей Мартынов (Fat Bastard) ∙ Марина Дюжева (Felicity Shagwell) ∙ Рудольф Панков (Basil Exposition) ∙ Александр Рахленко (Number Two; Young Number Two) ∙ Андрей Бархударов (Scott Evil) ∙ Людмила Ильина (Frau Farbissina) ∙ Дмитрий Матвеев ∙ Сергей Чекан ∙ Юрий Маляров ∙ Ольга Плетнёва (Robin Swallows) ∙ Дмитрий Полонский (Mustafa) и др.
Описание | Мечтающий о мировом господстве Доктор Зло отправляется назад в свингующие 60-е, чтобы похитить «моджо» плейбоя и суперагента Остина Пауэрса- талисман, гарантирующий ему успех у женщин. Смертельная схватка неизбежна.
Остин бросается в погоню за своим врагом, чтобы вместе с соблазнительной помощницей Фелицией Трахвелл спасти мир, вернуть свою гиперсексуальность и... успеть домой как раз к чаю...

kinopoisk.ru | 6.493 (8412)
Бюджет | $33 000 000
Маркетинг | $40 000 000
Сборы в США | $206 040 086
Сборы в мире | $310 940 086
Мировая премьера | 8 июня 1999
Релиз на DVD | 22 мая 2008 ∙ «CP-Digital»

Качество | BDRip 1080p
Контейнер | Matroska
Видео | AVC ∙ 1920x818 (2.35:1) ∙ 14444 kbps ∙ 23.976 fps ∙ 0.384 bit/pixel
Аудио #1 | AC3 ∙ 448 kbps ∙ CBR ∙ 6 channels ∙ 16 bit /DUB/
Аудио #2 | DTS ∙ 1510 kbps ∙ CBR ∙ 6 channels ∙ 24 bit /AVO/
Аудио #3 | DTS ∙ 1510 kbps ∙ CBR ∙ 6 channels ∙ 24 bit /ENG/
Аудио #4 | AAC LC ∙ 126 kbps ∙ 2 channels /COMM/

MediaInfo
General
Unique ID : 227348083266960128172668017179219637501 (0xAB09A5EC4280D1F0920B93D9266EB4FD)
Complete name : I:\films\Austin.Powers.Trilogy.BDRip.1080p\Austin.Powers.The.Spy.Who.Shagged.Me.1999.BDRip.1080p.mkv
Format : Matroska
Format version : Version 4 / Version 2
File size : 12.0 GiB
Duration : 1h 35mn
Overall bit rate : 18.0 Mbps
Movie name : Austin Powers: The Spy Who Shagged Me (1999) - Release for HDCLUB by Skazhutin
Encoded date : UTC 2013-02-28 05:22:45
Writing application : mkvmerge v6.0.0 ('Coming Up For Air') built on Jan 20 2013 09:52:00
Writing library : libebml v1.3.0 + libmatroska v1.4.0
Attachment : Yes / Yes

Video
ID : 1
Format : AVC
Format/Info : Advanced Video Codec
Format profile : High@L4.1
Format settings, CABAC : Yes
Format settings, ReFrames : 5 frames
Codec ID : V_MPEG4/ISO/AVC
Duration : 1h 35mn
Nominal bit rate : 14.4 Mbps
Width : 1 920 pixels
Height : 818 pixels
Display aspect ratio : 2.35:1
Frame rate : 23.976 fps
Color space : YUV
Chroma subsampling : 4:2:0
Bit depth : 8 bits
Scan type : Progressive
Bits/(Pixel*Frame) : 0.384
Title : Release for HDCLUB
Writing library : x264 core 129 r2245kMod bc13772
Encoding settings : cabac=1 / ref=5 / deblock=1:-3:-3 / analyse=0x3:0x113 / me=umh / subme=11 / psy=1 / fade_compensate=0.00 / psy_rd=1.00:0.00 / mixed_ref=1 / me_range=48 / chroma_me=1 / trellis=2 / 8x8dct=1 / cqm=0 / deadzone=21,11 / fast_pskip=0 / chroma_qp_offset=-2 / threads=12 / lookahead_threads=2 / sliced_threads=0 / nr=0 / decimate=0 / interlaced=0 / bluray_compat=0 / constrained_intra=0 / bframes=11 / b_pyramid=2 / b_adapt=2 / b_bias=0 / direct=3 / weightb=1 / open_gop=0 / weightp=2 / keyint=250 / keyint_min=23 / scenecut=40 / intra_refresh=0 / rc_lookahead=40 / rc=2pass / mbtree=0 / bitrate=14444 / ratetol=1.0 / qcomp=0.70 / qpmin=0 / qpmax=69 / qpstep=4 / cplxblur=20.0 / qblur=0.5 / vbv_maxrate=50000 / vbv_bufsize=62500 / nal_hrd=none / ip_ratio=1.30 / pb_ratio=1.20 / aq=1:0.80
Language : English
Default : Yes
Forced : No
Matrix coefficients : BT.709-5, BT.1361, IEC 61966-2-4 709, SMPTE RP177

Audio #1
ID : 2
Format : AC-3
Format/Info : Audio Coding 3
Mode extension : CM (complete main)
Codec ID : A_AC3
Duration : 1h 35mn
Bit rate mode : Constant
Bit rate : 448 Kbps
Channel(s) : 6 channels
Channel positions : Front: L C R, Side: L R, LFE
Sampling rate : 48.0 KHz
Bit depth : 16 bits
Compression mode : Lossy
Stream size : 305 MiB (2%)
Title : AC3 5.1 @ 448 kbps - Dub, R5
Language : Russian
Default : Yes
Forced : No

Audio #2
ID : 3
Format : DTS
Format/Info : Digital Theater Systems
Codec ID : A_DTS
Duration : 1h 35mn
Bit rate mode : Constant
Bit rate : 1 510 Kbps
Channel(s) : 6 channels
Channel positions : Front: L C R, Side: L R, LFE
Sampling rate : 48.0 KHz
Bit depth : 24 bits
Compression mode : Lossy
Stream size : 1.00 GiB (8%)
Title : DTS 5.1 @ 1536 kbps - VO, Jivov
Language : Russian
Default : No
Forced : No

Audio #3
ID : 4
Format : DTS
Format/Info : Digital Theater Systems
Codec ID : A_DTS
Duration : 1h 35mn
Bit rate mode : Constant
Bit rate : 1 510 Kbps
Channel(s) : 6 channels
Channel positions : Front: L C R, Side: L R, LFE
Sampling rate : 48.0 KHz
Bit depth : 24 bits
Compression mode : Lossy
Stream size : 1.00 GiB (8%)
Title : DTS 5.1 @ 1536 kbps
Language : English
Default : No
Forced : No

Audio #4
ID : 5
Format : AAC
Format/Info : Advanced Audio Codec
Format profile : LC
Codec ID : A_AAC
Duration : 1h 35mn
Channel(s) : 2 channels
Channel positions : Front: L R
Sampling rate : 48.0 KHz
Compression mode : Lossy
Delay relative to video : 9ms
Title : Commentary with Mike Myers, Jay Roach and co-writer Michael McCullers
Language : English
Default : No
Forced : No

Text #1
ID : 6
Format : UTF-8
Codec ID : S_TEXT/UTF8
Codec ID/Info : UTF-8 Plain Text
Language : Russian
Default : No
Forced : No

Text #2
ID : 7
Format : UTF-8
Codec ID : S_TEXT/UTF8
Codec ID/Info : UTF-8 Plain Text
Language : English
Default : No
Forced : No

Menu
00:00:00.000 : en:Logos/I Married a Fembot
00:04:41.863 : en:Opening Titles
00:07:23.192 : en:"My Fater Is Evil and Wants to Take Over the World"
00:10:28.961 : en:Photo Shoot
00:12:43.179 : en:Dr. Evil's Headquarters
00:17:28.756 : en:The Time Portal
00:19:34.631 : en:Checkmate
00:21:46.430 : en:How to Steal Mojo
00:23:49.344 : en:Back to the Sixties
00:25:24.981 : en:Austin's Pad, 1969
00:28:34.629 : en:"Prepare to Die, Powers!"
00:30:59.774 : en:A Familiar Fez
00:34:51.881 : en:Mister Mojo Risin
00:39:18.189 : en:M.O.D. Cryo Chamber
00:39:58.103 : en:I'm a Believer
00:43:13.090 : en:It Got Weird
00:45:06.870 : en:The Shag Pad
00:49:24.585 : en:The Alan Parsons Project
00:51:35.300 : en:Tracking Fat Bastard
00:53:35.837 : en:Sample Analysis
00:58:33.218 : en:Dr. Evil's Island
01:02:05.888 : en:Just the Two of Us
01:03:49.867 : en:Captured
01:08:29.854 : en:Unidentified Flying Objects
01:11:21.527 : en:The Moon Base
01:15:15.385 : en:Attack of Mini-Me
01:18:28.662 : en:Felicity or the World
01:22:43.917 : en:My Mojo
01:24:43.411 : en:Austin's Pad
01:28:05.071 : en:Another Ufo Sighting/End Credits
Свернуть

Скриншоты

Изображение

Изображение

Изображение
Свернуть
Свернуть

Остин Пауэрс: Голдмембер / Austin Powers in Goldmember
Изображение
Остин Пауэрс: Голдмембер
Austin Powers in Goldmember


«A New Breed of Evil.»


Год выпуска | 2002
Страна | США
Жанр | боевик ∙ комедия ∙ криминал
Продолжительность | 01:34:31
Перевод | Профессиональный (полное дублирование) ∙ Профессиональный (многоголосый, закадровый) ∙ Авторский (Гранкин Е.) ∙ Оригинальный ∙ Субтитры (русские, английские)
Режиссер | Джей Роуч
Сценарий | Майк Майерс ∙ Майкл МакКаллерс
Продюсер | Дженнифер Тодд ∙ Сюзанн Тодд ∙ Джон С. Лайонс ∙ Эрик МакЛеод ∙ Деми Мур
Оператор | Питер Диминг
Композитор | Джордж С. Клинтон

В ролях | Майк Майерс (Austin Powers / Dr. Evil / Goldmember / Fat Bastard) ∙ Бейонсе Ноулз (Foxxy Cleopatra) ∙ Сет Грин (Scott Evil) ∙ Майкл Йорк (Basil Exposition) ∙ Роберт Вагнер (Number Two) ∙ Минди Стерлинг (Frau Farbissina) ∙ Верн Тройер (Mini Me) ∙ Майкл Кейн (Nigel Powers) ∙ Фред Сэвидж (Number Three) ∙ Дайан Мизота (Fook Mi) ∙ Кэрри Энн Инаба (Fook Yu) ∙ Нобу Матсухиса (Mr. Roboto) и др.
Дублёры | Леонид Белозорович (Austin Powers / Dr. Evil) ∙ Андрей Мартынов (Fat Bastard) ∙ Алексей Колган (Goldmember; играет самого себя / Famous Director, ('Austinpussy')) ∙ Ольга Плетнёва (Foxxy Cleopatra) ∙ Андрей Бархударов (Scott Evil) ∙ Рудольф Панков (Basil Exposition) ∙ Олег Куценко (Number Two) ∙ Людмила Ильина (Frau Farbissina) ∙ Вадим Андреев (Nigel Powers) ∙ Всеволод Кузнецов (Number Three) ∙ Жанна Никонова (Fook Mi) ∙ Никита Прозоровский (Mr. Roboto) и др.
Описание | В 1975 году отец Остина Пауэрса - знаменитый английский шпион Нейджел Пауэрс - был похищен голландским злодеем Голдмембером. Теперь, в 21-ом веке, знаменитый шпион Остин Пауэрс решает помочь своему отцу. Заручившись поддержкой своего давнего врага - Доктора Зла, с помощью его машины времени Остин совершает прыжок во времени.
Он оказывается в 1975 году, в эпохе диско. Однако вскоре выясняется, что одержимый идеей завоевать весь мир Доктор Зло, был сам в сговоре с Голдмембером и возможно причастен к похищению отца Остина. Может быть, похищение Нейджела Пауэрса - это всего лишь уловка двух злодеев, совершенная, чтобы заманить к себе Остина Пауэрса?
Вместе со своей очаровательной давней подружкой Фокси Клеопатрой Остин Пауэрс пытается распутать злодейские планы Доктора Зла и Голдмембера, чтобы не только выручить своего отца, но и спасти весь мир от этих злодеев...

kinopoisk.ru | 5.986 (11 280)
Бюджет | $63 000 000
Маркетинг | $50 000 000
Сборы в США | $213 307 889
Сборы в мире | $296 633 907
Мировая премьера | 22 июля 2002
Релиз на DVD | 24 ноября 2011 ∙ «CP-Digital»

Качество | BDRip 1080p
Контейнер | Matroska
Видео | AVC ∙ 1920x816 (2.35:1) ∙ 15000 kbps ∙ 23.976 fps ∙ 0.399 bit/pixel
Аудио #1 | AC3 ∙ 448 kbps ∙ CBR ∙ 6 channels ∙ 16 bit /DUB/
Аудио #2 | AC3 ∙ 384 kbps ∙ CBR ∙ 6 channels ∙ 16 bit /MVO/
Аудио #3 | DTS ∙ 1510 kbps ∙ CBR ∙ 6 channels ∙ 24 bit /AVO/
Аудио #4 | DTS ∙ 1510 kbps ∙ CBR ∙ 6 channels ∙ 24 bit /ENG/
Аудио #5 | AAC LC ∙ 102 kbps ∙ 2 channels /COMM/

MediaInfo
General
Unique ID : 234390164178221093744453451185614322618 (0xB055E7516AA1A61E82BAA9DE11457BBA)
Complete name : I:\films\Austin.Powers.Trilogy.BDRip.1080p\Austin.Powers.in.Goldmember.2002.BDRip.1080p.mkv
Format : Matroska
Format version : Version 4 / Version 2
File size : 12.5 GiB
Duration : 1h 34mn
Overall bit rate : 19.0 Mbps
Movie name : Austin Powers in Goldmember (2002) - Release for HDCLUB by Skazhutin
Encoded date : UTC 2013-03-04 03:51:14
Writing application : mkvmerge v6.1.0 ('Old Devil') built on Mar 2 2013 14:32:37
Writing library : libebml v1.3.0 + libmatroska v1.4.0
Attachment : Yes / Yes

Video
ID : 1
Format : AVC
Format/Info : Advanced Video Codec
Format profile : High@L4.1
Format settings, CABAC : Yes
Format settings, ReFrames : 5 frames
Codec ID : V_MPEG4/ISO/AVC
Duration : 1h 34mn
Nominal bit rate : 15.0 Mbps
Width : 1 920 pixels
Height : 816 pixels
Display aspect ratio : 2.35:1
Frame rate : 23.976 fps
Color space : YUV
Chroma subsampling : 4:2:0
Bit depth : 8 bits
Scan type : Progressive
Bits/(Pixel*Frame) : 0.399
Title : Release for HDCLUB
Writing library : x264 core 129 r2245kMod bc13772
Encoding settings : cabac=1 / ref=5 / deblock=1:-3:-3 / analyse=0x3:0x113 / me=umh / subme=11 / psy=1 / fade_compensate=0.00 / psy_rd=1.10:0.00 / mixed_ref=1 / me_range=48 / chroma_me=1 / trellis=2 / 8x8dct=1 / cqm=0 / deadzone=21,11 / fast_pskip=0 / chroma_qp_offset=-2 / threads=12 / lookahead_threads=2 / sliced_threads=0 / nr=0 / decimate=0 / interlaced=0 / bluray_compat=0 / constrained_intra=0 / bframes=9 / b_pyramid=2 / b_adapt=2 / b_bias=0 / direct=3 / weightb=1 / open_gop=0 / weightp=2 / keyint=250 / keyint_min=23 / scenecut=40 / intra_refresh=0 / rc_lookahead=40 / rc=2pass / mbtree=0 / bitrate=15000 / ratetol=1.0 / qcomp=0.75 / qpmin=0 / qpmax=69 / qpstep=4 / cplxblur=20.0 / qblur=0.5 / vbv_maxrate=50000 / vbv_bufsize=62500 / nal_hrd=none / ip_ratio=1.25 / pb_ratio=1.15 / aq=1:0.85
Language : English
Default : Yes
Forced : No
Matrix coefficients : BT.709-5, BT.1361, IEC 61966-2-4 709, SMPTE RP177

Audio #1
ID : 2
Format : AC-3
Format/Info : Audio Coding 3
Mode extension : CM (complete main)
Codec ID : A_AC3
Duration : 1h 34mn
Bit rate mode : Constant
Bit rate : 448 Kbps
Channel(s) : 6 channels
Channel positions : Front: L C R, Side: L R, LFE
Sampling rate : 48.0 KHz
Bit depth : 16 bits
Compression mode : Lossy
Stream size : 303 MiB (2%)
Title : AC3 5.1 @ 448 kbps - Dub, R5
Language : Russian
Default : Yes
Forced : No

Audio #2
ID : 3
Format : AC-3
Format/Info : Audio Coding 3
Mode extension : CM (complete main)
Codec ID : A_AC3
Duration : 1h 34mn
Bit rate mode : Constant
Bit rate : 384 Kbps
Channel(s) : 6 channels
Channel positions : Front: L C R, Side: L R, LFE
Sampling rate : 48.0 KHz
Bit depth : 16 bits
Compression mode : Lossy
Stream size : 260 MiB (2%)
Title : AC3 5.1 @ 384 kbps - MVO
Language : Russian
Default : No
Forced : No

Audio #3
ID : 4
Format : DTS
Format/Info : Digital Theater Systems
Codec ID : A_DTS
Duration : 1h 34mn
Bit rate mode : Constant
Bit rate : 1 510 Kbps
Channel(s) : 6 channels
Channel positions : Front: L C R, Side: L R, LFE
Sampling rate : 48.0 KHz
Bit depth : 24 bits
Compression mode : Lossy
Stream size : 1 021 MiB (8%)
Title : DTS 5.1 @ 1536 kbps - VO, Grankin
Language : Russian
Default : No
Forced : No

Audio #4
ID : 5
Format : DTS
Format/Info : Digital Theater Systems
Codec ID : A_DTS
Duration : 1h 34mn
Bit rate mode : Constant
Bit rate : 1 510 Kbps
Channel(s) : 6 channels
Channel positions : Front: L C R, Side: L R, LFE
Sampling rate : 48.0 KHz
Bit depth : 24 bits
Compression mode : Lossy
Stream size : 1 021 MiB (8%)
Title : DTS 5.1 @ 1536 kbps
Language : English
Default : No
Forced : No

Audio #5
ID : 6
Format : AAC
Format/Info : Advanced Audio Codec
Format profile : LC
Codec ID : A_AAC
Duration : 1h 34mn
Channel(s) : 2 channels
Channel positions : Front: L R
Sampling rate : 48.0 KHz
Compression mode : Lossy
Delay relative to video : 9ms
Title : Commentary with Mike Myers and Jay Roach
Language : English
Default : No
Forced : No

Text #1
ID : 7
Format : UTF-8
Codec ID : S_TEXT/UTF8
Codec ID/Info : UTF-8 Plain Text
Language : Russian
Default : No
Forced : No

Text #2
ID : 8
Format : UTF-8
Codec ID : S_TEXT/UTF8
Codec ID/Info : UTF-8 Plain Text
Language : English
Default : No
Forced : No

Text #3
ID : 9
Format : UTF-8
Codec ID : S_TEXT/UTF8
Codec ID/Info : UTF-8 Plain Text
Language : English
Default : No
Forced : No

Menu
00:00:00.000 : en:Lights! Camera! Austin!
00:07:30.116 : en:The Perfect Plan
00:13:07.203 : en:Daddy Issues
00:23:44.464 : en:Destination 1975
00:33:46.190 : en:Hard Knock Life
00:38:14.833 : en:The Mole
00:40:51.532 : en:Meet the Fahza
00:46:36.710 : en:Tokyo Tangle
00:52:40.114 : en:Son's Present
00:54:53.540 : en:Mr. Roboto
01:03:29.930 : en:Father Son Spat
01:05:21.626 : en:Mini-Defector
01:09:29.790 : en:Evil Demands
01:11:25.863 : en:Clone of Burden
01:17:39.154 : en:Sons of the Father
01:22:51.675 : en:Goldmember Strikes
01:26:35.314 : en:Epilogue
01:28:03.152 : en:End Credits
Свернуть

Скриншоты

Изображение

Изображение

Изображение
Свернуть
Свернуть

Релиз | ИзображениеРаздача | Изображение

_________________
«you failed because you had the wrong dream...»
Не в сети
Профиль  
 Добавлено: 2013-03-16 23:12 (спустя 1 день 11 часов)
Top-seeder
Аватара пользователя
Стаж: 8 лет 8 месяцев
Возраст: 26
Сообщений: 665
Спасибок: 2687
Лайков: 2
спасибо!
Не в сети
Профиль  
Начать новую темуОтветить на тему  [ Сообщений: 2 ] 
Вы не можете начинать темы
Вы не можете отвечать на сообщения
Вы не можете редактировать свои сообщения
Вы не можете удалять свои сообщения