Правила форума

Здесь находятся раздачи, на которых не было полного источника (сида) более месяца.
Вы можете вернуть релиз в соответствующий раздел, для этого напишите нам в специальной теме и встаньте на раздачу.
Новые релизы, повторяющие релизы в архиве, повторами не считаются.
Начать новую темуОтветить на тему  [ Сообщений: 2 ] 
Сообщения
 Добавлено: 2012-07-25 16:49
Top-seeder
Аватара пользователя
Стаж: 9 лет
Сообщений: 1399
Спасибок: 28654
Лайков: 8
Откровения

Изображение


Информация о фильме
Название: Откровения
Оригинальное название: Elles
Год выхода: 2011
Жанр: драма
Режиссер: Малгожата Шумовска
В ролях: Жюльет Бинош, Анаис Демустье, Джоэнна Кулиг, Луи-До де Ланкесэ, Кристина Янда

О фильме:
Журналистка Анна, занимающаяся расследованиями для журнала Elle, увлечена новой темой. Она знакомится с группой юных студенток, которые зарабатывают на свое обучение проституцией. Частые встречи уравновешенной дамы и любвеобильных девушек вызывают у Анны чувственный ренессанс и заставляют переосмыслить свои убеждения о деньгах, семье и сексе.

Выпущено: Германия / Франция / Польша, Canal+ Polska / Angoa-Agicoa / Slot Machine
Продолжительность: 01:35:19
Озвучивание: Профессиональное (многоголосое) [лицензия]

Файл
Формат: MKV
Качество: BDRip 720p [CHD]
Видео: 5044 Kb/s, 1280x544
Аудио: Russian: AC3, 448 Kb/s (2 ch) / French: DTS, 1510 Kb/s (6 ch)
Субтитры: Russian, English

MI
Общее
Уникальный идентификатор : 249143029219972348130050940601370149809 (0xBB6F33B8F5A599868B584973A79803B1)
Полное имя : D:\Закачки\Откровения.mkv
Формат : Matroska
Размер файла : 4,66 Гбайт
Продолжительность : 1 ч. 35 м.
Общий поток : 7000 Кбит/сек
Дата кодирования : UTC 2012-07-22 14:28:44
Программа кодирования : mkvmerge v5.7.0 ('The Whirlwind') built on Jul 8 2012 20:08:51
Библиотека кодирования : libebml v1.2.3 + libmatroska v1.3.0

Видео
Идентификатор : 1
Формат : AVC
Формат/Информация : Advanced Video Codec
Профиль формата : High@L4.1
Параметр CABAC формата : Да
Параметр ReFrames формата : 12 кадров
Идентификатор кодека : V_MPEG4/ISO/AVC
Продолжительность : 1 ч. 35 м.
Битрейт : 5044 Кбит/сек
Ширина : 1280 пикс.
Высота : 544 пикс.
Соотношение сторон : 2,35:1
Частота кадров : 25,000 кадр/сек
Цветовое пространство : YUV
Подвыборка цветности : 4:2:0
Битовая глубина : 8 бит
Тип развёртки : Прогрессивная
Бит/(Пиксели*Кадры) : 0.290
Размер потока : 3,26 Гбайт (70%)
Библиотека кодирования : x264 core 120 r2164+656 2ff844c
Настройки программы : cabac=1 / ref=12 / deblock=1:-3:-3 / analyse=0x3:0x113 / me=umh / subme=10 / psy=1 / fade_compensate=0.00 / psy_rd=1.05:0.10 / mixed_ref=1 / me_range=32 / chroma_me=1 / trellis=2 / 8x8dct=1 / cqm=0 / deadzone=21,11 / fast_pskip=0 / chroma_qp_offset=-2 / threads=12 / sliced_threads=0 / nr=0 / decimate=1 / interlaced=0 / bluray_compat=0 / constrained_intra=0 / fgo=0 / bframes=6 / b_pyramid=2 / b_adapt=2 / b_bias=0 / direct=3 / weightb=1 / open_gop=0 / weightp=2 / keyint=250 / keyint_min=25 / scenecut=40 / intra_refresh=0 / rc_lookahead=40 / rc=2pass / mbtree=0 / bitrate=5044 / ratetol=1.0 / qcomp=0.70 / qpmin=0 / qpmax=69 / qpstep=4 / cplxblur=20.0 / qblur=0.5 / vbv_maxrate=20000 / vbv_bufsize=30000 / nal_hrd=none / ip_ratio=1.40 / pb_ratio=1.30 / aq=2:1.00
Язык : French
Основные цвета : BT.709-5, BT.1361, IEC 61966-2-4, SMPTE RP177
Характеристики трансфера : BT.709-5, BT.1361
Коэффициенты матрицы : BT.709-5, BT.1361, IEC 61966-2-4 709, SMPTE RP177

Аудио #1
Идентификатор : 2
Формат : AC-3
Формат/Информация : Audio Coding 3
Расширение режима : CM (complete main)
Идентификатор кодека : A_AC3
Продолжительность : 1 ч. 35 м.
Вид битрейта : Постоянный
Битрейт : 448 Кбит/сек
Каналы : 2 канала
Расположение каналов : Front: L R
Частота : 48,0 КГц
Битовая глубина : 16 бит
Метод сжатия : С потерями
Размер потока : 305 Мбайт (6%)
Язык : Russian

Аудио #2
Идентификатор : 3
Формат : DTS
Формат/Информация : Digital Theater Systems
Идентификатор кодека : A_DTS
Продолжительность : 1 ч. 35 м.
Вид битрейта : Постоянный
Битрейт : 1510 Кбит/сек
Каналы : 6 каналов
Расположение каналов : Front: L C R, Side: L R, LFE
Частота : 48,0 КГц
Битовая глубина : 24 бит
Метод сжатия : С потерями
Размер потока : 1,01 Гбайт (22%)
Язык : French

Текст #1
Идентификатор : 4
Формат : UTF-8
Идентификатор кодека : S_TEXT/UTF8
Идентификатор кодека/Информация : UTF-8 Plain Text
Язык : Russian

Текст #2
Идентификатор : 5
Формат : UTF-8
Идентификатор кодека : S_TEXT/UTF8
Идентификатор кодека/Информация : UTF-8 Plain Text
Язык : English

Свернуть

Скриншоты
ИзображениеИзображениеИзображениеИзображение
Свернуть
Не в сети
Профиль  
 Добавлено: 2012-07-25 18:14 (спустя 1 час 24 минуты)
Аватара пользователя
Стаж: 7 лет 7 месяцев
Сообщений: 13
Несколько странный фильм.
Не в сети
Профиль  
Начать новую темуОтветить на тему  [ Сообщений: 2 ] 
Вы не можете начинать темы
Вы не можете отвечать на сообщения
Вы не можете редактировать свои сообщения
Вы не можете удалять свои сообщения