Правила форума

Здесь находятся раздачи, на которых не было полного источника (сида) более месяца.
Вы можете вернуть релиз в соответствующий раздел, для этого напишите нам в специальной теме и встаньте на раздачу.
Новые релизы, повторяющие релизы в архиве, повторами не считаются.
Начать новую темуОтветить на тему  [ Сообщений: 6 ] 
Сообщения
 Добавлено: 2013-05-24 09:32
Модератор
Аватара пользователя
Стаж: 8 лет 10 месяцев
Сообщений: 2743
Спасибок: 21519
Лайков: 338
Оз: Великий и Ужасный / Oz the Great and Powerful

Изображение
Год выпуска: 2013
Страна: США
Жанр: фэнтези, приключения, комедия, семейный
Продолжительность: 127 мин
Перевод: Профессиональный (полное дублирование) [Чистый звук]
Режиссёр: Сэм Рэйми
Сценарист: Митчелл Кэпнер, Дэвид Линдси-Эбейр, Лаймен Фрэнк Баум
Продюсер: Джо Рот, Дэбби Босси, Грант Кертис
В ролях: Джеймс Франко, Мила Кунис, Рэйчел Вайз, Мишель Уильямс, Зак Брафф, Билл Коббс, Джои Кинг, Тони Кокс, Стивен Р. Харт, Эбигейл Спенсер и др.
Описание: Когда ураган забрасывает циркового фокусника Оскара Диггса из пыльного Канзаса в волшебную страну Оз, склонный к мошенничеству циркач полагает, что он поймал удачу за хвост — ведь с помощью своих трюков он с легкостью может добыть в новых землях и славу и богатство.
Однако его ждёт встреча с тремя чародейками, Теодорой, Эванорой и Глиндой, которые сомневаются в том, тот ли это великий волшебник, появления которого ждали легковерные жители страны Оз. Волей-неволей, пришелец оказывается втянутым в противостояние эпического масштаба, и ему приходится использовать весь свой «магический» арсенал, с добавлением толики настоящего волшебства.
В ситуации выбора между Добром и Злом, Оскару Диггсу предстоит не только стать Великим и Ужасным Волшебником из Страны Оз, но и немного измениться к лучшему.
Изображение
Качество: BDRip 1080p
Формат: MKV
Видео кодек: H.264
Аудио кодек: AC3
Видео: 1920x800, 8 076 Kbps, 2.40:1, 23.976 fps
Аудио #1: AC3, 6 ch, 448 Кбит/с (DUB)
Аудио #2: DTS, 6 ch, 1510 Кбит/с (Original)
MediaInfo
General
Unique ID : 171995288270958238707015392073264881535 (0x8165166CC96DCFE491ACAFB1C33B5F7F)
Complete name : C:\Users\Oleg\Downloads\oz.the.great.and.powerful.2013.1080p.bluray.x264-sparks.mkv
Format : Matroska
Format version : Version 4 / Version 2
File size : 9.15 GiB
Duration : 2h 10mn
Overall bit rate : 10.0 Mbps
Encoded date : UTC 2013-05-24 05:50:43
Writing application : mkvmerge v6.1.0 ('Old Devil') built on Mar 2 2013 14:32:37
Writing library : libebml v1.3.0 + libmatroska v1.4.0

Video
ID : 1
Format : AVC
Format/Info : Advanced Video Codec
Format profile : High@L4.1
Format settings, CABAC : Yes
Format settings, ReFrames : 5 frames
Codec ID : V_MPEG4/ISO/AVC
Duration : 2h 10mn
Bit rate : 8 076 Kbps
Width : 1 920 pixels
Height : 800 pixels
Display aspect ratio : 2.40:1
Frame rate mode : Constant
Frame rate : 23.976 fps
Color space : YUV
Chroma subsampling : 4:2:0
Bit depth : 8 bits
Scan type : Progressive
Bits/(Pixel*Frame) : 0.219
Stream size : 7.18 GiB (79%)
Writing library : x264 core 133 r2334 a3ac64b
Encoding settings : cabac=1 / ref=5 / deblock=1:0:0 / analyse=0x3:0x133 / me=umh / subme=7 / psy=1 / psy_rd=1.00:0.00 / mixed_ref=1 / me_range=16 / chroma_me=1 / trellis=1 / 8x8dct=1 / cqm=0 / deadzone=21,11 / fast_pskip=0 / chroma_qp_offset=-2 / threads=18 / lookahead_threads=3 / sliced_threads=0 / nr=0 / decimate=1 / interlaced=0 / bluray_compat=0 / constrained_intra=0 / bframes=3 / b_pyramid=2 / b_adapt=1 / b_bias=0 / direct=1 / weightb=1 / open_gop=0 / weightp=2 / keyint=250 / keyint_min=23 / scenecut=40 / intra_refresh=0 / rc_lookahead=40 / rc=2pass / mbtree=1 / bitrate=8076 / ratetol=1.0 / qcomp=0.60 / qpmin=0 / qpmax=69 / qpstep=4 / cplxblur=20.0 / qblur=0.5 / ip_ratio=1.40 / aq=1:1.00
Language : English
Default : Yes
Forced : No

Audio #1
ID : 2
Format : AC-3
Format/Info : Audio Coding 3
Mode extension : CM (complete main)
Format settings, Endianness : Big
Codec ID : A_AC3
Duration : 2h 10mn
Bit rate mode : Constant
Bit rate : 448 Kbps
Channel(s) : 6 channels
Channel positions : Front: L C R, Side: L R, LFE
Sampling rate : 48.0 KHz
Bit depth : 16 bits
Compression mode : Lossy
Stream size : 418 MiB (4%)
Language : Russian
Default : Yes
Forced : No

Audio #2
ID : 3
Format : DTS
Format/Info : Digital Theater Systems
Mode : 16
Format settings, Endianness : Big
Codec ID : A_DTS
Duration : 2h 10mn
Bit rate mode : Constant
Bit rate : 1 509 Kbps
Channel(s) : 6 channels
Channel positions : Front: L C R, Side: L R, LFE
Sampling rate : 48.0 KHz
Bit depth : 24 bits
Compression mode : Lossy
Stream size : 1.38 GiB (15%)
Title : DTS
Language : English
Default : No
Forced : No
Свернуть
Скриншоты
Изображение
Изображение
Изображение
Изображение
Свернуть


Последний раз редактировалось music_boy08 2013-05-25 08:19, всего редактировалось 1 раз.
Не в сети
Профиль  
 Добавлено: 2013-05-24 14:41 (спустя 5 часов)
Аватара пользователя
Стаж: 8 лет 10 месяцев
Сообщений: 548
Спасибок: 153
А когда примерно стоит ждать 3д версию ?
Не в сети
Профиль  
 Добавлено: 2013-05-24 21:36 (спустя 6 часов)
Аватара пользователя
Стаж: 7 лет 11 месяцев
Сообщений: 198
Лайков: 4
дайте скорости
Не в сети
Профиль  
 Добавлено: 2013-05-28 18:27 (спустя 3 дня)
Аватара пользователя
Стаж: 7 лет 8 месяцев
Возраст: 24
Сообщений: 299
Спасибок: 71
Лайков: 2

ramborere:

А когда примерно стоит ждать 3д версию ?

да кстате)) хочется в 3д глянуть
Не в сети
Профиль  
 Добавлено: 2013-05-30 10:37 (спустя 1 день 16 часов)
Стаж: 5 лет 3 месяца
Сообщений: 150
Лайков: 2
Фильм ОК! :co_ol:
Не в сети
Профиль  
 Добавлено: 2013-06-10 16:57 (спустя 11 дней)
Модератор
Аватара пользователя
Стаж: 8 лет 11 месяцев
Сообщений: 516
Спасибок: 26888
Лайков: 1
viewtopic.php?f=1743&t=510609
Не в сети
Профиль  
Начать новую темуОтветить на тему  [ Сообщений: 6 ] 
Вы не можете начинать темы
Вы не можете отвечать на сообщения
Вы не можете редактировать свои сообщения
Вы не можете удалять свои сообщения