Правила форума

Здесь находятся раздачи, на которых не было полного источника (сида) более месяца.
Вы можете вернуть релиз в соответствующий раздел, для этого напишите нам в специальной теме и встаньте на раздачу.
Новые релизы, повторяющие релизы в архиве, повторами не считаются.
Начать новую темуОтветить на тему  [ Сообщений: 2 ] 
Сообщения
 Добавлено: 2013-06-29 20:11
Аватара пользователя
Стаж: 8 лет 8 месяцев
Сообщений: 572
Спасибок: 12628
Лайков: 11
Падение Олимпа / Olympus Has Fallen


Изображение


Год выпуска: 2013
Страна: США
Жанр: боевик, триллер
Продолжительность: 01:59:09
Перевод: Профессиональный (дубляж) | Чистый звук
Субтитры: English, Chinese

Режиссёр: Антуан Фукуа
В ролях: Джерард Батлер, Аарон Экхарт, Морган Фриман, Эшли Джадд, Мелисса Лео, Финли Якобсен, Дилан МакДермотт, Рик Юн, Анджела Бассетт, Рада Митчелл
Описание: Когда на Белый Дом нападают террористы, а президента берут в заложники, дискредитированный бывший охранник главы государства Майк Бэннинг оказывается внутри захваченного здания. И теперь он единственный, кто сможет спасти президента…


Качество: BDRip 720p
Формат: MKV
Видео кодек: MPEG4
Аудио кодек: AC3 (Dolby Digital)
Видео: 5843 Kb/s, 1280x538, MPEG4
Аудио #1: Russian: AC3, 384 kb/s (6 ch) [Профессиональный (дубляж)] | Чистый звук
Аудио #2: English: DTS, 1510 kb/s (6 ch) [Оригинал]
Скриншоты
Изображение
Изображение
Изображение
Изображение
Свернуть

MediaInfo
General
Unique ID : 199623694313953834406005828874635984911 (0x962E2003337AAE2EA7966BC2E0F6400F)
Complete name : F:\TORRENT\Video\Padenie.Olimpa.2013.NNTT.mkv
Format : Matroska
Format version : Version 2
File size : 6.57 GiB
Duration : 1h 59mn
Overall bit rate : 7 893 Kbps
Encoded date : UTC 2013-06-29 08:36:06
Writing application : mkvmerge v2.9.8 ('C'est le bon') built on Nov 20 2009 13:01:15
Writing library : libebml v0.7.9 + libmatroska v0.8.1

Video
ID : 1
Format : AVC
Format/Info : Advanced Video Codec
Format profile : High@L4.1
Format settings, CABAC : Yes
Format settings, ReFrames : 12 frames
Codec ID : V_MPEG4/ISO/AVC
Duration : 1h 59mn
Bit rate : 5 843 Kbps
Width : 1 280 pixels
Height : 538 pixels
Display aspect ratio : 2.40:1
Frame rate mode : Constant
Frame rate : 24.000 fps
Color space : YUV
Chroma subsampling : 4:2:0
Bit depth : 8 bits
Scan type : Progressive
Bits/(Pixel*Frame) : 0.354
Stream size : 4.86 GiB (74%)
Writing library : x264 core 132 r2323+704+51 d571b1c tMod [8-bit@4:2:0 X86_64]
Encoding settings : cabac=1 / ref=12 / deblock=1:-3:-3 / analyse=0x3:0x113 / me=umh / subme=11 / psy=1 / fade_compensate=0.00 / psy_rd=1.05:0.00 / mixed_ref=1 / me_range=32 / chroma_me=1 / trellis=2 / 8x8dct=1 / cqm=0 / deadzone=21,11 / fast_pskip=0 / chroma_qp_offset=-2 / threads=36 / lookahead_threads=4 / sliced_threads=0 / nr=0 / decimate=0 / interlaced=0 / bluray_compat=0 / constrained_intra=0 / fgo=0 / bframes=8 / b_pyramid=2 / b_adapt=2 / b_bias=0 / direct=3 / weightb=1 / open_gop=0 / weightp=2 / keyint=240 / keyint_min=24 / scenecut=40 / intra_refresh=0 / rc=crf / mbtree=0 / crf=17.2000 / qcomp=0.70 / qpmin=0 / qpmax=69 / qpstep=4 / ip_ratio=1.20 / pb_ratio=1.20 / aq=4:0.85 / aq-sensitivity=10.00 / aq-factor=1.00:1.00:1.00 / aq2=0 / aq3=0
Language : English
Default : No
Forced : No

Audio #1
ID : 2
Format : AC-3
Format/Info : Audio Coding 3
Mode extension : CM (complete main)
Format settings, Endianness : Big
Codec ID : A_AC3
Duration : 1h 59mn
Bit rate mode : Constant
Bit rate : 384 Kbps
Channel(s) : 6 channels
Channel positions : Front: L C R, Side: L R, LFE
Sampling rate : 48.0 KHz
Bit depth : 16 bits
Compression mode : Lossy
Stream size : 327 MiB (5%)
Language : Russian
Default : Yes
Forced : Yes

Audio #2
ID : 3
Format : DTS
Format/Info : Digital Theater Systems
Mode : 16
Format settings, Endianness : Big
Codec ID : A_DTS
Duration : 1h 59mn
Bit rate mode : Constant
Bit rate : 1 509 Kbps
Channel(s) : 6 channels
Channel positions : Front: L C R, Side: L R, LFE
Sampling rate : 48.0 KHz
Bit depth : 24 bits
Compression mode : Lossy
Delay relative to video : 11ms
Stream size : 1.26 GiB (19%)
Language : English
Default : No
Forced : No

Text #1
ID : 4
Format : PGS
Codec ID : S_HDMV/PGS
Codec ID/Info : The same subtitle format used on BDs/HD-DVDs
Language : English
Default : No
Forced : No

Text #2
ID : 5
Format : PGS
Codec ID : S_HDMV/PGS
Codec ID/Info : The same subtitle format used on BDs/HD-DVDs
Language : Chinese
Default : No
Forced : No

Text #3
ID : 6
Format : PGS
Codec ID : S_HDMV/PGS
Codec ID/Info : The same subtitle format used on BDs/HD-DVDs
Language : Chinese
Default : No
Forced : No
Свернуть
Не в сети
Профиль  
 Добавлено: 2013-07-09 14:27 (спустя 9 дней)
Модератор
Аватара пользователя
Стаж: 8 лет 11 месяцев
Сообщений: 516
Спасибок: 26888
Лайков: 1
viewtopic.php?f=1743&t=512768
Не в сети
Профиль  
Начать новую темуОтветить на тему  [ Сообщений: 2 ] 
Вы не можете начинать темы
Вы не можете отвечать на сообщения
Вы не можете редактировать свои сообщения
Вы не можете удалять свои сообщения