Правила форума

Здесь находятся раздачи, на которых не было полного источника (сида) более месяца.
Вы можете вернуть релиз в соответствующий раздел, для этого напишите нам в специальной теме и встаньте на раздачу.
Новые релизы, повторяющие релизы в архиве, повторами не считаются.
Начать новую темуОтветить на тему  [ 1 сообщение ] 
Сообщения
 Добавлено: 2012-09-09 12:00
Инквизитор
Аватара пользователя
Стаж: 8 лет 8 месяцев
Сообщений: 3753
Спасибок: 28360
Лайков: 9
Изображение

Падший
Fallen


Год выпуска: 1998
Страна: США
Слоган: «Чему быть, того не миновать»
Жанр: триллер, драма, криминал
Продолжительность: 02:04:11
Перевод: Оригинальный, Профессиональный (двухголосый), Профессиональный (полное дублирование), Авторский (Живов Юрий)
Режиссер: Грегори Хоблит
Сценарий: Николас Казан
Продюсер: Чарльз Ровен, Доун Стил, Роберт Кавалло, Элон Дершовиц, Патриция Граф
Оператор: Ньютон Томас Сигел
Композитор: Тань Дунь
В ролях: Дензел Вашингтон, Джон Гудмен, Дональд Сазерленд, Эмбет Дэвидц, Джеймс Гандольфини, Элиас Котеас, Гэбриел Коссес, Майкл Дж. Паган, Роберт Джой, Фрэнк Медрано, Ронн Манро, Синтия Хейден
Сборы в США: $25 232 289
Мировая премьера: 16 января 1998
Релиз на DVD: 16 сентября 2008, «Юниверсал Пикчерс Рус»
Описание: В городской тюрьме казнен по приговору суда опасный преступник, маньяк - убийца. С этого момента в городе происходят одно за другим загадочные убийства, притом, судя по телам жертв, убийства ритуального характера.
Полицейский детектив Хоббс, присутствовавший при казни маньяка, берется за расследование серии этих преступлений и, для начала, выясняет, как зовут того, кто их совершил. Установив его имя, сыщик приходит к страшному выводу: эти злодеяния - не человеческих рук дело, а демона - убийцы, вырвавшегося в наш мир…


Изображение User Rating: 7.172 (3 007)
Изображение User Rating: 6.90 (35 346)
MPAA: R - Лицам до 17 лет обязательно присутствие взрослого
Релиз: Изображение Раздача группы: Изображение
Качество: BDRip, 1080p
Формат: Matroska
Видео: AVC; 1920x800 (2.35:1); 13520 Kbps; 23,976 fps; 0,367 bit/pixel
Аудио №1: Russian; AC3; 384 Kbps; CBR; 6 ch
Аудио №2: Russian; DTS; 1509 Kbps; CBR; 6 ch; 24 bit
Аудио №3: Russian; DTS; 1509 Kbps; CBR; 6 ch; 24 bit
Аудио №4: English; DTS; 1509 Kbps; CBR; 6 ch; 24 bit
Аудио №5: English; AC3; 192 Kbps; CBR; 2 ch

Субтитры №1: Russian
Субтитры №2: English
Субтитры №3: English

mediainfo
Общее
Уникальный идентификатор                 : 232965098904913216725853008067301489763 (0xAF43722CE99ACA98A65BA17B30403C63)
Полное имя                               : K:\Фильмы\Fallen.1998.1080p.BluRay.3xRus.2xEng.HDCLUB.mkv
Формат                                   : Matroska
Версия формата                           : Version 2
Размер файла                             : 16,5 Гбайт
Продолжительность                        : 2 ч. 4 м.
Общий поток                              : 19,0 Мбит/сек
Название фильма                          : Fallen 1998  ~  TayTO
Дата кодирования                         : UTC 2012-08-29 17:13:44
Программа кодирования                    : mkvmerge v3.4.0 ('Rapunzel') сборка от May 15 2010 09:38:20
Библиотека кодирования                   : libebml v0.8.0 + libmatroska v0.9.0

Видео
Идентификатор                            : 1
Формат                                   : AVC
Формат/Информация                        : Advanced Video Codec
Профиль формата                          : High@L4.1
Параметр CABAC формата                   : Да
Параметр ReFrames формата                : 5 кадров
Идентификатор кодека                     : V_MPEG4/ISO/AVC
Продолжительность                        : 2 ч. 4 м.
Битрейт                                  : 13,9 Мбит/сек
Ширина                                   : 1920 пикселей
Высота                                   : 800 пикселей
Соотношение сторон                       : 2,40:1
Частота кадров                           : 23,976 кадра/сек
Цветовое пространство                    : YUV
Субдискретизация насыщенности            : 4:2:0
Битовая глубина                          : 8 бит
Тип развёртки                            : Прогрессивная
Бит/(Пиксели*Кадры)                      : 0.377
Размер потока                            : 11,7 Гбайт (71%)
Заголовок                                : Fallen 1998 1080p Bluray DTS x264-TayTO
Библиотека кодирования                   : x264 core 125 r2200 999b753
Настройки программы                      : cabac=1 / ref=5 / deblock=1:-3:-3 / analyse=0x3:0x113 / me=esa / subme=10 / psy=1 / psy_rd=1.05:0.00 / mixed_ref=1 / me_range=16 / chroma_me=1 / trellis=2 / 8x8dct=1 / cqm=0 / deadzone=21,11 / fast_pskip=0 / chroma_qp_offset=-2 / threads=6 / lookahead_threads=1 / sliced_threads=0 / nr=0 / decimate=0 / interlaced=0 / bluray_compat=0 / constrained_intra=0 / bframes=8 / b_pyramid=2 / b_adapt=2 / b_bias=0 / direct=3 / weightb=1 / open_gop=0 / weightp=2 / keyint=240 / keyint_min=23 / scenecut=40 / intra_refresh=0 / rc=2pass / mbtree=0 / bitrate=13900 / ratetol=1.0 / qcomp=0.70 / qpmin=0 / qpmax=69 / qpstep=4 / cplxblur=20.0 / qblur=0.5 / ip_ratio=1.40 / pb_ratio=1.30 / aq=1:0.70 / zones=1,980,b=0.65/175150,178654,b=0.35
Язык                                     : English
Default                                  : Нет
Forced                                   : Нет
Коэффициенты матрицы                     : BT.709-5, BT.1361, IEC 61966-2-4 709, SMPTE RP177

Аудио #1
Идентификатор                            : 2
Формат                                   : AC-3
Формат/Информация                        : Audio Coding 3
Расширение режима                        : CM (complete main)
Идентификатор кодека                     : A_AC3
Продолжительность                        : 2 ч. 4 м.
Вид битрейта                             : Постоянный
Битрейт                                  : 384 Кбит/сек
Каналы                                   : 6 каналов
Расположение каналов                     : Front: L C R, Side: L R, LFE
Частота                                  : 48,0 КГц
Битовая глубина                          : 16 бит
Метод сжатия                             : С потерями
Размер потока                            : 341 Мбайт (2%)
Заголовок                                : AC3 5.1 @ 384 kbps - Дубляж
Язык                                     : Russian
Default                                  : Да
Forced                                   : Нет

Аудио #2
Идентификатор                            : 3
Формат                                   : DTS
Формат/Информация                        : Digital Theater Systems
Идентификатор кодека                     : A_DTS
Продолжительность                        : 2 ч. 4 м.
Вид битрейта                             : Постоянный
Битрейт                                  : 1510 Кбит/сек
Каналы                                   : 6 каналов
Расположение каналов                     : Front: L C R, Side: L R, LFE
Частота                                  : 48,0 КГц
Битовая глубина                          : 24 бит
Метод сжатия                             : С потерями
Размер потока                            : 1,31 Гбайт (8%)
Заголовок                                : DTS 5.1 @ 1536 kbps - Двухголосый закадровый
Язык                                     : Russian
Default                                  : Нет
Forced                                   : Нет

Аудио #3
Идентификатор                            : 4
Формат                                   : DTS
Формат/Информация                        : Digital Theater Systems
Идентификатор кодека                     : A_DTS
Продолжительность                        : 2 ч. 4 м.
Вид битрейта                             : Постоянный
Битрейт                                  : 1510 Кбит/сек
Каналы                                   : 6 каналов
Расположение каналов                     : Front: L C R, Side: L R, LFE
Частота                                  : 48,0 КГц
Битовая глубина                          : 24 бит
Метод сжатия                             : С потерями
Размер потока                            : 1,31 Гбайт (8%)
Заголовок                                : DTS 5.1 @ 1536 kbps - Одноголосый закадровый, Ю. Живов
Язык                                     : Russian
Default                                  : Нет
Forced                                   : Нет

Аудио #4
Идентификатор                            : 5
Формат                                   : DTS
Формат/Информация                        : Digital Theater Systems
Идентификатор кодека                     : A_DTS
Продолжительность                        : 2 ч. 4 м.
Вид битрейта                             : Постоянный
Битрейт                                  : 1510 Кбит/сек
Каналы                                   : 6 каналов
Расположение каналов                     : Front: L C R, Side: L R, LFE
Частота                                  : 48,0 КГц
Битовая глубина                          : 24 бит
Метод сжатия                             : С потерями
Задержка видео                           : 11 мс.
Размер потока                            : 1,31 Гбайт (8%)
Заголовок                                : DTS 5.1 @ 1536 kbps
Язык                                     : English
Default                                  : Нет
Forced                                   : Нет

Аудио #5
Идентификатор                            : 6
Формат                                   : AC-3
Формат/Информация                        : Audio Coding 3
Профиль формата                          : Dolby Digital
Расширение режима                        : CM (complete main)
Идентификатор кодека                     : A_AC3
Продолжительность                        : 2 ч. 4 м.
Вид битрейта                             : Постоянный
Битрейт                                  : 192 Кбит/сек
Каналы                                   : 2 канала
Расположение каналов                     : Front: L R
Частота                                  : 48,0 КГц
Битовая глубина                          : 16 бит
Метод сжатия                             : С потерями
Размер потока                            : 171 Мбайт (1%)
Заголовок                                : Commentary
Язык                                     : English
Default                                  : Нет
Forced                                   : Нет

Текст #1
Идентификатор                            : 7
Формат                                   : UTF-8
Идентификатор кодека                     : S_TEXT/UTF8
Идентификатор кодека/Информация          : UTF-8 Plain Text
Язык                                     : Russian
Default                                  : Нет
Forced                                   : Нет

Текст #2
Идентификатор                            : 8
Формат                                   : UTF-8
Идентификатор кодека                     : S_TEXT/UTF8
Идентификатор кодека/Информация          : UTF-8 Plain Text
Язык                                     : English
Default                                  : Нет
Forced                                   : Нет

Текст #3
Идентификатор                            : 9
Формат                                   : UTF-8
Идентификатор кодека                     : S_TEXT/UTF8
Идентификатор кодека/Информация          : UTF-8 Plain Text
Заголовок                                : SDH
Язык                                     : English
Default                                  : Нет
Forced                                   : Нет

Меню
00:00:00.000                             : en:00:00:00.000
00:02:24.853                             : en:00:02:24.853
00:05:08.266                             : en:00:05:08.266
00:09:23.563                             : en:00:09:23.563
00:14:36.125                             : en:00:14:36.125
00:16:55.014                             : en:00:16:55.014
00:19:53.067                             : en:00:19:53.067
00:23:04.883                             : en:00:23:04.883
00:26:22.206                             : en:00:26:22.206
00:31:11.995                             : en:00:31:11.995
00:36:02.077                             : en:00:36:02.077
00:40:32.847                             : en:00:40:32.847
00:43:42.620                             : en:00:43:42.620
00:49:28.799                             : en:00:49:28.799
00:55:18.732                             : en:00:55:18.732
01:02:09.768                             : en:01:02:09.768
01:06:42.040                             : en:01:06:42.040
01:10:30.184                             : en:01:10:30.184
01:12:46.237                             : en:01:12:46.237
01:17:04.370                             : en:01:17:04.370
01:19:39.483                             : en:01:19:39.483
01:21:45.067                             : en:01:21:45.067
01:27:18.567                             : en:01:27:18.567
01:33:15.548                             : en:01:33:15.548
01:37:33.056                             : en:01:37:33.056
01:39:37.430                             : en:01:39:37.430
01:44:43.360                             : en:01:44:43.360
01:47:05.377                             : en:01:47:05.377
01:52:25.489                             : en:01:52:25.489
01:55:01.269                             : en:01:55:01.269
01:58:58.381                             : en:01:58:58.381
02:00:35.770                             : en:02:00:35.770
Свернуть
"Знаете ли Вы, что..."
  • В картине демон Азазел постоянно напевает две песенки из репертуара группы «The Rolling Stones» - «Время на моей стороне» (Time is on my side) и «Сочувствие к дьяволу» (Sympathy for the Devil).
  • Фильм снимался в Филадельфии (штат Пенсильвания) и городке Пайн Барренс (штат Нью-Джерси).
  • В одной из сцен по телевизору показывают культовую картину Тодда Браунинга «Уродцы» (1932).
Свернуть
Скриншоты

Изображение
Изображение
Изображение
Изображение
Свернуть

Изображение
Не в сети
Профиль  
Начать новую темуОтветить на тему  [ 1 сообщение ] 
Вы не можете начинать темы
Вы не можете отвечать на сообщения
Вы не можете редактировать свои сообщения
Вы не можете удалять свои сообщения