Правила форума

Здесь находятся раздачи, на которых не было полного источника (сида) более месяца.
Вы можете вернуть релиз в соответствующий раздел, для этого напишите нам в специальной теме и встаньте на раздачу.
Новые релизы, повторяющие релизы в архиве, повторами не считаются.
Начать новую темуОтветить на тему  [ 1 сообщение ] 
Сообщения
 Добавлено: 2012-04-25 16:55
Модератор релиз-группы
Аватара пользователя
Стаж: 9 лет 1 месяц
Возраст: 97
Сообщений: 11660
Спасибок: 6534
Лайков: 269
Папаши 2 / Un jour mon pere viendra

Изображение


Год выпуска: 2011
Страна: Франция
Жанр: комедия
Продолжительность: 01:34:19
Перевод: Профессиональный (многоголосый закадровый)

Режиссёр: Мартин Валенте / Martin Valente

В ролях: Жерар Жюньо, Франсуа Берлеан, Оливия Руис, Джейми Бамбер, Лоуренс Арни, Anne-Cecile Crapie, Лорен Мутон, Юбер Сен-Макари, Марк Бертолини, Жан-Клод Калон
Описание: Бернар — богатый продвинутый сноб, Гус — бедный расточительный алкоголик. Оба абсолютно уверены, что являются отцами Хлои и отправляются вместе на ее поиски. Каково же их удивление, когда выясняется, что место папаши Хлои уже занято самозванцем…
Изображение


Качество: BDRemux
Формат: mkv
Видео кодек: MPEG-4
Аудио кодек: DTS
Видео: MPEG-4 AVC Video / 13076 kbps / 1080i / 25 fps / 16:9 / High Profile 4.1
Аудио #1: Russian: 5.1 / 48 kHz / 1509 kbps / 16-bit [Профессиональный (многоголосый закадровый)]
Скриншоты
Изображение

Изображение

Изображение

Изображение
Свернуть
Mi
Format : Matroska
Format version : Version 2
File size : 9.61 GiB
Duration : 1h 34mn
Overall bit rate mode : Variable
Overall bit rate : 14.6 Mbps
Encoded date : UTC 2012-04-25 13:33:14
Writing application : mkvmerge v5.5.0 ('Healer') built on Apr 6 2012 21:43:24
Writing library : libebml v1.2.3 + libmatroska v1.3.0

Video
ID : 1
Format : AVC
Format/Info : Advanced Video Codec
Format profile : Main@L4.1
Format settings, CABAC : Yes
Format settings, ReFrames : 3 frames
Format settings, GOP : M=4, N=18
Codec ID : V_MPEG4/ISO/AVC
Duration : 1h 34mn
Bit rate mode : Variable
Bit rate : 12.8 Mbps
Maximum bit rate : 24.0 Mbps
Width : 1 920 pixels
Height : 1 080 pixels
Display aspect ratio : 16:9
Frame rate : 50.000 fps
Original frame rate : 25.000 fps
Standard : PAL
Color space : YUV
Chroma subsampling : 4:2:0
Bit depth : 8 bits
Scan type : Interlaced
Scan order : Top Field First
Bits/(Pixel*Frame) : 0.123
Stream size : 8.42 GiB (88%)
Default : Yes
Forced : No

Audio
ID : 2
Format : DTS
Format/Info : Digital Theater Systems
Codec ID : A_DTS
Duration : 1h 34mn
Bit rate mode : Constant
Bit rate : 1 510 Kbps
Channel(s) : 6 channels
Channel positions : Front: L C R, Side: L R, LFE
Sampling rate : 48.0 KHz
Bit depth : 16 bits
Compression mode : Lossy
Stream size : 1 019 MiB (10%)
Language : Russian
Default : Yes
Forced : No

Свернуть
Не в сети
Профиль  
Начать новую темуОтветить на тему  [ 1 сообщение ] 
Вы не можете начинать темы
Вы не можете отвечать на сообщения
Вы не можете редактировать свои сообщения
Вы не можете удалять свои сообщения