Правила форума

Здесь находятся раздачи, на которых не было полного источника (сида) более месяца.
Вы можете вернуть релиз в соответствующий раздел, для этого напишите нам в специальной теме и встаньте на раздачу.
Новые релизы, повторяющие релизы в архиве, повторами не считаются.
Начать новую темуОтветить на тему  [ Сообщений: 2 ] 
Сообщения
 Добавлено: 2013-01-20 00:23
Модератор
Аватара пользователя
Стаж: 6 лет 10 месяцев
Возраст: 33
Сообщений: 5908
Спасибок: 61244
Лайков: 3540
Изображение

Паранормальное явление 4
Paranormal Activity 4


Год выпуска: 2012
Страна: США
Слоган: «Что же произошло на самом деле ?»
Жанр: ужасы
Продолжительность: 01:27:08
Перевод: Профессиональный (полное дублирование) Чистый звук
Режиссер: Генри Джуст, Эриель Шульман
Сценарий: Кристофер Б. Лэндон, Чад Фихэн, Орен Пели
Продюсер: Джейсон Блум, Орен Пели, Акива Голдсман, Джеймс Моран, Грегори Плоткин
Оператор: Даг Эмметт
В ролях: Кэтрин Ньютон, Кэти Физерстон, Мэтт Шивли, Алексондра Ли, Стивен Данэм, Сара Морнелл, Брэйди Аллен, Эйден Лавкамп, Брэндон Хэйл Эггерсен, Алиша Боэ, Уильям Хуан Прието
Бюджет: $5 000 000
Сборы в США: $53 900 335
Сборы в России: $6 783 406
Сборы в мире: $142 263 393
Мировая премьера: 27 сентября 2012
Релиз на DVD: 11 февраля 2013, «Новый Диск»
Релиз на Blu-ray: 11 февраля 2013, «Новый Диск»
Описание: Действие разворачивается спустя 5 лет с момента событий фильма «Паранормальное явление 2». Алекс и её бойфренд борются с паранормальной активностью в их доме.

Изображение User Rating: 4.806 (5469)
Изображение User Rating: 4.40 (15 031)
MPAA: R - Лицам до 17 лет обязательно присутствие взрослого
Раздача группы: Изображение
Изображение
Качество: BDRip, 720p
Формат: MKV
Видео: AVC, 6394 kb/s, 1280x720, 23,976 fps
Аудио №1: Russian: AC3, 384 kb/s (6 ch) / English: DTS, 1510 kb/s (6 ch)
mediainfo
General
Unique ID : 19613384614114637558790512761328892373 (0x91A894DD97F04A26942DB564FB83F9D5)
Complete name : Paranormalnoe.javlenie.4.2012.D.BDRip.720p.mkv
Format : Matroska
Format version : Version 2
File size : 5.04 GiB
Duration : 1h 27mn
Overall bit rate : 8 280 Kbps
Encoded date : UTC 2013-01-19 19:10:27
Writing application : mkvmerge v5.5.0 ('Healer') built on Apr 6 2012 21:43:24
Writing library : libebml v1.2.3 + libmatroska v1.3.0

Video
ID : 1
Format : AVC
Format/Info : Advanced Video Codec
Format profile : High@L4.0
Format settings, CABAC : Yes
Format settings, ReFrames : 8 frames
Muxing mode : Header stripping
Codec ID : V_MPEG4/ISO/AVC
Duration : 1h 27mn
Bit rate : 6 394 Kbps
Width : 1 280 pixels
Height : 720 pixels
Display aspect ratio : 16:9
Frame rate : 23.976 fps
Color space : YUV
Chroma subsampling : 4:2:0
Bit depth : 8 bits
Scan type : Progressive
Bits/(Pixel*Frame) : 0.289
Stream size : 3.79 GiB (75%)
Writing library : x264 core 125 r2208 d9d2288
Encoding settings : cabac=1 / ref=8 / deblock=1:-1:-1 / analyse=0x3:0x133 / me=umh / subme=7 / psy=1 / psy_rd=1.00:0.10 / mixed_ref=1 / me_range=16 / chroma_me=1 / trellis=2 / 8x8dct=1 / cqm=0 / deadzone=21,11 / fast_pskip=0 / chroma_qp_offset=-3 / threads=12 / lookahead_threads=2 / sliced_threads=0 / nr=0 / decimate=1 / interlaced=0 / bluray_compat=0 / constrained_intra=0 / bframes=3 / b_pyramid=2 / b_adapt=2 / b_bias=0 / direct=3 / weightb=1 / open_gop=0 / weightp=2 / keyint=250 / keyint_min=23 / scenecut=40 / intra_refresh=0 / rc_lookahead=50 / rc=2pass / mbtree=1 / bitrate=6394 / ratetol=1.0 / qcomp=0.60 / qpmin=0 / qpmax=69 / qpstep=4 / cplxblur=20.0 / qblur=0.5 / ip_ratio=1.40 / aq=1:1.00
Language : English
Default : Yes
Forced : No

Audio #1
ID : 2
Format : AC-3
Format/Info : Audio Coding 3
Mode extension : CM (complete main)
Format settings, Endianness : Big
Codec ID : A_AC3
Duration : 1h 27mn
Bit rate mode : Constant
Bit rate : 384 Kbps
Channel(s) : 6 channels
Channel positions : Front: L C R, Side: L R, LFE
Sampling rate : 44.1 KHz
Bit depth : 16 bits
Compression mode : Lossy
Stream size : 239 MiB (5%)
Language : Russian
Default : Yes
Forced : No

Audio #2
ID : 3
Format : DTS
Format/Info : Digital Theater Systems
Codec ID : A_DTS
Duration : 1h 27mn
Bit rate mode : Constant
Bit rate : 1 510 Kbps
Channel(s) : 6 channels
Channel positions : Front: L C R, Side: L R, LFE
Sampling rate : 48.0 KHz
Bit depth : 24 bits
Compression mode : Lossy
Stream size : 941 MiB (18%)
Language : English
Default : No
Forced : No
Свернуть
"Знаете ли Вы, что..."
  • Персонаж Брэйди Аллена - Робби - был назван в честь Робби Мангейма, ребенок, который в 1959 году был одержим бесами и пришлось прибегнуть с изгнанию нечистой силы, чтобы спасти его жизнь.
  • Как и в предыдущих трех фильмах этой серии студия Paramount пользовалась услугами исследователя паранормальных явлений - Кристофера Чакона (который признан одним из ведущих авторитетов в мире по паранормальным явлениям), для международной рекламы этого фильма.
  • Родители в фильме, которых сыграли Стивен Данэм и Алексондра Ли, на самом деле супружеская пара. К несчастью, Данэм умер 14 сентября 2012 года от сердечного приступа, незадолго до того как фильм вышел на экраны.
  • В финальной сцене, когда Алекс ищет своего отца в пустой спальне, можно услышать, как мальчик (предположительно Уайт) называет свою сестру «Катрин», а не «Алекс».
  • Очиститель воздуха в форме лягушки в комнате Уайта и Робби то исчезает, то появляется при смене кадра.
  • Когда Алекс выходит в сад вместе с Беном, после ночи проведенной с друзьями, ее волосы завиваются. Когда она возвращается, они прямые.
  • После того как мяч прыгает вниз по лестнице, Алекс поднимается на шум, мяч все еще на лестнице. Когда она спускается, мяча уже нет.
  • Когда Алекс залезает с Беном в домик на дереве, у нее вьющиеся волосы, в следующем кадре они прямые.
  • В одной сцене Алекс идет по разбросанным игрушкам в комнату Уайта. Она проверяет его шкаф, и в этот момент позади нее игрушечный поезд сам по себе начинает ехать. Испугавшись, она разворачивается, чтобы пойти вниз. Когда она идет от его комнаты обратно, игрушек уже нет.
Свернуть
Скриншоты

Изображение
Изображение
Изображение
Изображение
Свернуть
_________________
ИзображениеИзображение Изображение
Изображение
 tany1984 и di-ys1 нравится это.
Не в сети
Профиль  
 Добавлено: 2013-02-09 12:09 (спустя 20 дней)
Модератор
Аватара пользователя
Стаж: 8 лет 11 месяцев
Сообщений: 516
Спасибок: 26888
Лайков: 1
viewtopic.php?f=1743&t=499196
Не в сети
Профиль  
Начать новую темуОтветить на тему  [ Сообщений: 2 ] 
Вы не можете начинать темы
Вы не можете отвечать на сообщения
Вы не можете редактировать свои сообщения
Вы не можете удалять свои сообщения