Правила форума

Здесь находятся раздачи, на которых не было полного источника (сида) более месяца.
Вы можете вернуть релиз в соответствующий раздел, для этого напишите нам в специальной теме и встаньте на раздачу.
Новые релизы, повторяющие релизы в архиве, повторами не считаются.
Начать новую темуОтветить на тему  [ 1 сообщение ] 
Сообщения
 Добавлено: 2011-04-10 20:43
Аватара пользователя
Стаж: 8 лет
Возраст: 23
Сообщений: 2472
Спасибок: 27962
Лайков: 2
Паранормальное явление: Ночь в Токио / Paranormal Activity: Tokyo Night

Изображение
Год выпуска: 2010
Страна: Изображение Япония
Жанр: ужасы, триллер
Продолжительность:
01:30:38

Перевод: Профессиональный (полное дублирование) [лицензия]

Режиссер: Тошиказу Нагае
Сценарий: Тошиказу Нагае
Продюсер: Ясутака Ханада

В ролях:
Аой Накамура (Koichi Yamano), Норико Аояма (Haruka Yamano)
Дублёры: Диомид Виноградов (Koichi Yamano) (Koichi Yamano), Денис Беспалый, Ольга Шорохова (Haruka Yamano) (Haruka Yamano)

Описание: Харука только что вернулась в Японию из путешествия по Америке. Отдых оказался омрачен автокатастрофой, в которую Харука угодила в Сан-Диего, когда ей перебежала дорогу девушка, находящаяся в розыске по обвинению в убийстве своего бойфренда. Это была та самая Кэти, в которую вселялся странный демон в первой части «Паранормального явления».
В Токио брат девушки замечает, что с его сестрой, вынужденной после аварии передвигаться на инвалидной коляске, начинают происходить очень странные вещи. Похоже, паранормальное явление, уже замеченное в Сан-Диего, теперь повторяется в Токио. Парень устанавливает камеру в комнате сестры и с ужасом узнает о леденящих кровь событиях...



Изображение: 5.306 (1 388)
Изображение: 5.10 (92)

Доп. Информация

Сборы в России: $370 262
Мировая премьера: 20 ноября 2010
Изображение Релиз на DVD: 16 марта 2011, «Кармен Видео»
Изображение Релиз на Blu-ray: 16 марта 2011, «Кармен Видео»

Свернуть

Релиз группы: Изображение

Качество: BDRip 1080p R5

Формат: MKV
Video: MPEG-4 AVC, 9081 Кбит/с, 1920x1040
Audio: Русский (DTS, 6 ch, 1152 Кбит/с), японский (DTS, 6 ch, 1344 Кбит/с)
Изображение


BDInfo

General
Complete name : Paranormalnoe.javlenie.Noch.v.Tokio.2011.x264.BDRip.1080p.mkv
Format : Matroska
File size : 7.33 GiB
Duration : 1h 30mn
Overall bit rate : 11.6 Mbps
Encoded date : UTC 2011-04-10 14:34:33
Writing application : mkvmerge v4.6.0 ('Still Crazy After All These Years') ������ �� Mar 10 2011 02:50:32
Writing library : libebml v1.2.0 + libmatroska v1.1.0

Video
ID : 1
Format : AVC
Format/Info : Advanced Video Codec
Format profile : High@L4.1
Format settings, CABAC : Yes
Format settings, ReFrames : 4 frames
Codec ID : V_MPEG4/ISO/AVC
Duration : 1h 30mn
Bit rate : 9 081 Kbps
Width : 1 920 pixels
Height : 1 040 pixels
Display aspect ratio : 16:9
Frame rate : 24.000 fps
Color space : YUV
Chroma subsampling : 4:2:0
Bit depth : 8 bits
Scan type : Progressive
Bits/(Pixel*Frame) : 0.189
Stream size : 5.60 GiB (76%)
Writing library : x264 core 114 r1913 5fd3dce
Encoding settings : cabac=1 / ref=4 / deblock=1:-3:-3 / analyse=0x3:0x133 / me=umh / subme=10 / psy=1 / psy_rd=1.05:0.10 / mixed_ref=1 / me_range=64 / chroma_me=1 / trellis=2 / 8x8dct=1 / cqm=0 / deadzone=21,11 / fast_pskip=1 / chroma_qp_offset=-3 / threads=9 / sliced_threads=0 / nr=0 / decimate=1 / interlaced=0 / constrained_intra=0 / bframes=10 / b_pyramid=2 / b_adapt=2 / b_bias=0 / direct=3 / weightb=1 / open_gop=0 / weightp=2 / keyint=250 / keyint_min=24 / scenecut=40 / intra_refresh=0 / rc_lookahead=60 / rc=2pass / mbtree=1 / bitrate=9081 / ratetol=1.0 / qcomp=0.70 / qpmin=0 / qpmax=51 / qpstep=4 / cplxblur=20.0 / qblur=0.5 / vbv_maxrate=50000 / vbv_bufsize=62500 / nal_hrd=none / ip_ratio=1.40 / aq=1:0.80

Audio #1
ID : 2
Format : DTS
Format/Info : Digital Theater Systems
Codec ID : A_DTS
Duration : 1h 30mn
Bit rate mode : Constant
Bit rate : 1 152 Kbps
Channel(s) : 6 channels
Channel positions : Front: L C R, Side: L R, LFE
Sampling rate : 48.0 KHz
Bit depth : 16 bits
Compression mode : Lossy
Stream size : 747 MiB (10%)
Language : Russian

Audio #2
ID : 3
Format : DTS
Format/Info : Digital Theater Systems
Codec ID : A_DTS
Duration : 1h 30mn
Bit rate mode : Constant
Bit rate : 1 344 Kbps
Channel(s) : 6 channels
Channel positions : Front: L C R, Side: L R, LFE
Sampling rate : 48.0 KHz
Bit depth : 16 bits
Compression mode : Lossy
Stream size : 872 MiB (12%)
Language : Japanese

Text #1
ID : 4
Format : UTF-8
Codec ID : S_TEXT/UTF8
Codec ID/Info : UTF-8 Plain Text
Title : Full
Language : Russian

Text #2
ID : 5
Format : UTF-8
Codec ID : S_TEXT/UTF8
Codec ID/Info : UTF-8 Plain Text
Title : Forced
Language : Russian
Свернуть
Скриншоты

Изображение
Изображение
Изображение
Изображение
Свернуть

_________________
Изображение

Изображение
Не в сети
Профиль  
Начать новую темуОтветить на тему  [ 1 сообщение ] 
Вы не можете начинать темы
Вы не можете отвечать на сообщения
Вы не можете редактировать свои сообщения
Вы не можете удалять свои сообщения