Правила форума

Здесь находятся раздачи, на которых не было полного источника (сида) более месяца.
Вы можете вернуть релиз в соответствующий раздел, для этого напишите нам в специальной теме и встаньте на раздачу.
Новые релизы, повторяющие релизы в архиве, повторами не считаются.
Начать новую темуОтветить на тему  [ Сообщений: 4 ] 
Сообщения
 Добавлено: 2012-12-13 07:22
Модератор
Аватара пользователя
Стаж: 6 лет 10 месяцев
Возраст: 33
Сообщений: 5908
Спасибок: 61257
Лайков: 3540
Изображение

Петля времени
Looper


Год выпуска: 2012
Страна: США, Китай
Слоган: «В плену будущего. В плену прошлого»
Жанр: фантастика, боевик, триллер, криминал
Продолжительность: 01:58:53
Перевод: Профессиональный (полное дублирование) (с ДВД лицензии R5)
Синхронизация звука и субтитров - schumaher.
Режиссер: Райан Джонсон
Сценарий: Райан Джонсон
Продюсер: Рэм Бергман, Джеймс Д. Штерн, Лукас Смит, Кристофер С. Чен, Джули Голдштейн
Оператор: Стив Йедлин
Композитор: Натан Джонсон
В ролях: Джозеф Гордон-Левитт, Брюс Уиллис, Эмили Блант, Джефф Дэниелс, Ной Сеган, Пирс Гэнон, Пол Дано, Пайпер Перабо, Квинг Ксу, Трейси Томс, Фрэнк Бреннан, Гаррет Диллахант
Бюджет: $30 000 000
Сборы в США: $66 179 790
Сборы в России: $5 091 864
Сборы в мире: $166 214 743
Мировая премьера: 6 сентября 2012
Релиз на DVD: 29 ноября 2012, «Новый Диск», «New Dream media»
Описание: В недалеком будущем, где стали возможны путешествия во времени, некая корпорация убирает нежелательных людей, отправляя их в прошлое в пластиковых пакетах. Задача принимающей стороны - убить жертву, стерев тем самым несчастного из истории. Все идет гладко до тех пор, пока главный герой не распаковывает очередной пакет, обнаруживая в нем самого себя из будущего.

Изображение User Rating: 7.319 (30 299)
Изображение User Rating: 7.80 (99 711)
MPAA: R - Лицам до 17 лет обязательно присутствие взрослого
Раздача группы: Изображение
Качество: BDRip, 1080p
Формат: Matroska
Видео: MPEG-4 AVC, 11601 Кбит/с, 1920x812
Аудио №1: Русский (AC3, 6 ch, 448 Кбит/с), английский (DTS, 6 ch, 1510 Кбит/с)
mediainfo
General
Unique ID : 248640021848029711336556954458349510947 (0xBB0E538B58EB6699871F54DD049E2123)
Complete name : C:\Users\Oleg\Downloads\looper.2012.1080p.bluray.mkv
Format : Matroska
Format version : Version 2
File size : 11.5 GiB
Duration : 1h 58mn
Overall bit rate : 13.8 Mbps
Encoded date : UTC 2012-12-13 02:53:00
Writing application : mkvmerge v5.8.0 ('No Sleep / Pillow') built on Sep 2 2012 15:37:04
Writing library : libebml v1.2.3 + libmatroska v1.3.0

Video
ID : 1
Format : AVC
Format/Info : Advanced Video Codec
Format profile : High@L4.1
Format settings, CABAC : Yes
Format settings, ReFrames : 4 frames
Codec ID : V_MPEG4/ISO/AVC
Duration : 1h 58mn
Bit rate : 11.6 Mbps
Nominal bit rate : 12.2 Mbps
Width : 1 920 pixels
Height : 812 pixels
Display aspect ratio : 2.35:1
Frame rate : 23.976 fps
Color space : YUV
Chroma subsampling : 4:2:0
Bit depth : 8 bits
Scan type : Progressive
Bits/(Pixel*Frame) : 0.310
Stream size : 9.63 GiB (84%)
Writing library : x264 core 125 r2200 999b753
Encoding settings : cabac=1 / ref=5 / deblock=1:-3:-3 / analyse=0x3:0x133 / me=umh / subme=9 / psy=1 / psy_rd=1.00:0.00 / mixed_ref=1 / me_range=16 / chroma_me=1 / trellis=2 / 8x8dct=1 / cqm=0 / deadzone=21,11 / fast_pskip=1 / chroma_qp_offset=-2 / threads=12 / lookahead_threads=2 / sliced_threads=0 / nr=0 / decimate=1 / interlaced=0 / bluray_compat=0 / constrained_intra=0 / bframes=5 / b_pyramid=1 / b_adapt=2 / b_bias=0 / direct=3 / weightb=1 / open_gop=0 / weightp=2 / keyint=240 / keyint_min=23 / scenecut=40 / intra_refresh=0 / rc_lookahead=120 / rc=abr / mbtree=1 / bitrate=12200 / ratetol=1.0 / qcomp=0.60 / qpmin=0 / qpmax=69 / qpstep=4 / ip_ratio=1.40 / aq=1:1.00
Language : English
Default : Yes
Forced : No

Audio #1
ID : 2
Format : AC-3
Format/Info : Audio Coding 3
Mode extension : CM (complete main)
Format settings, Endianness : Big
Codec ID : A_AC3
Duration : 1h 58mn
Bit rate mode : Constant
Bit rate : 448 Kbps
Channel(s) : 6 channels
Channel positions : Front: L C R, Side: L R, LFE
Sampling rate : 48.0 KHz
Bit depth : 16 bits
Compression mode : Lossy
Stream size : 381 MiB (3%)
Language : Russian
Default : Yes
Forced : No

Audio #2
ID : 3
Format : DTS
Format/Info : Digital Theater Systems
Codec ID : A_DTS
Duration : 1h 58mn
Bit rate mode : Constant
Bit rate : 1 510 Kbps
Channel(s) : 6 channels
Channel positions : Front: L C R, Side: L R, LFE
Sampling rate : 48.0 KHz
Bit depth : 24 bits
Compression mode : Lossy
Stream size : 1.25 GiB (11%)
Language : English
Default : No
Forced : No

Menu
00:00:00.000 : en:00:00:00.000
00:07:27.447 : en:00:07:27.447
00:13:31.686 : en:00:13:31.686
00:21:22.490 : en:00:21:22.490
00:26:48.106 : en:00:26:48.106
00:31:51.201 : en:00:31:51.201
00:41:28.403 : en:00:41:28.403
00:49:33.429 : en:00:49:33.429
00:54:10.414 : en:00:54:10.414
01:00:35.006 : en:01:00:35.006
01:08:09.919 : en:01:08:09.919
01:15:23.352 : en:01:15:23.352
01:23:57.741 : en:01:23:57.741
01:34:25.869 : en:01:34:25.869
01:41:04.433 : en:01:41:04.433
01:46:29.383 : en:01:46:29.383
Свернуть
"Знаете ли Вы, что..."
  • Идея фильма пришла к Райану Джонсону сразу после окончания съёмок фильма «Кирпич», и так как он хотел снова работать с Гордон-Левиттом, то писал роль специально для него, даже дав главному герою имя актёра.
Свернуть
Скриншоты

Изображение
Изображение
Изображение
Изображение
Свернуть
_________________
ИзображениеИзображение Изображение
Изображение
 tany1984 и di-ys1 нравится это.
Не в сети
Профиль  
 Добавлено: 2012-12-14 23:27 (спустя 1 день 16 часов)
Аватара пользователя
Стаж: 8 лет
Сообщений: 140
Спасибок: 51
спасибо
_________________
Изображение 6 мB/s Изображение 600 kB/s
Изображение
Не в сети
Профиль  
 Добавлено: 2012-12-15 03:11 (спустя 3 часа)
Аватара пользователя
Стаж: 3 года 11 месяцев
Возраст: 35
Сообщений: 22
Спасибок: 255
спасибо, глянем :)
Не в сети
Профиль  
 Добавлено: 2012-12-15 08:17 (спустя 5 часов)
Руководитель релиз-группы
Аватара пользователя
Стаж: 7 лет 4 месяца
Возраст: 31
Сообщений: 3407
Спасибок: 46729
Лайков: 5
viewtopic.php?f=1750&t=492197
Поглощено в пользу лучшего
Не в сети
Профиль  
Начать новую темуОтветить на тему  [ Сообщений: 4 ] 
Вы не можете начинать темы
Вы не можете отвечать на сообщения
Вы не можете редактировать свои сообщения
Вы не можете удалять свои сообщения