Правила форума

Здесь находятся раздачи, на которых не было полного источника (сида) более месяца.
Вы можете вернуть релиз в соответствующий раздел, для этого напишите нам в специальной теме и встаньте на раздачу.
Новые релизы, повторяющие релизы в архиве, повторами не считаются.
Начать новую темуОтветить на тему  [ Сообщений: 4 ] 
Сообщения
 Добавлено: 2012-08-30 22:13
Модератор
Аватара пользователя
Стаж: 6 лет 10 месяцев
Возраст: 33
Сообщений: 5908
Спасибок: 61260
Лайков: 3540
Изображение

Пираньи 3DD
Piranha 3DD


Год выпуска: 2012
Страна: США
Слоган: «Double the action. Double the terror. Double the D's.»
Жанр: ужасы, триллер, комедия
Продолжительность: 01:22:42
Перевод: Профессиональный (полное дублирование) Лицензия
Режиссер: Джон Гулажер
Сценарий: Патрик Мелтон, Маркус Данстэн, Джоэль Сойзон, Пит Голдфингер, Джош Столберг
Продюсер: Марк Кантон, Джоэль Сойзон, Марк Тоберофф, Боб Вайнштейн, Харви Вайнштейн
Оператор: Александр Леманн
Композитор: Элиа Кмирал
В ролях: Даниэль Панабэйкер, Мэтт Буш, Дэвид Кокнер, Катрина Боуден, Крис Зилка, Жан-Люк Билодо, Кристофер Ллойд, Гэри Бьюзи, Адриан Мартинез, Пол Джеймс, Мэган Тэнди, Дэвид Хэсселхофф
Бюджет: $20 000 000
Сборы в США: $376 512
Сборы в России: $1 273 258
Сборы в мире: $5 076 216
Мировая премьера: 11 мая 2012
Описание: Доисторические твари больше не будут ограничиваться поеданием туристов на озере, а проникнут через водопроводные и канализационные сети в бассейны и иные искусственные водоемы нового аквапарка под названием Wilderness Waters. Именно там и развернется основное действие.

Изображение User Rating: 3.184 (2 470)
Изображение User Rating: 4.10 (10 700)
MPAA: R - Лицам до 17 лет обязательно присутствие взрослого
Раздача группы: Изображение
Изображение
Качество: BDRip, 720p
Формат: Matroska
Видео: AVC; 1280x720 (16:9); 6134 Kbps; 23,976 fps; 0,278 bit/pixel
Аудио №1, №2, №3: Russian; AC3; 384 Kbps; CBR; 6 ch ( Дубляж; Любительский одноголосый; Оригинал )
mediainfo
General
Unique ID : 240881538265316777702085424998727440102 (0xB53818C53B6C4EBD8CAA0ADE8BEE56E6)
Complete name : D:\Фильмы\Piranji.3DD.2012.x264.BDRip.720p.torrentclab.mkv
Format : Matroska
Format version : Version 2
File size : 4.29 GiB
Duration : 1h 22mn
Overall bit rate : 7 434 Kbps
Encoded date : UTC 2012-08-30 07:38:10
Writing application : mkvmerge v4.0.0 ('The Stars were mine') сборка от Jun 6 2010 16:18:42
Writing library : libebml v1.0.0 + libmatroska v1.0.0

Video
ID : 1
Format : AVC
Format/Info : Advanced Video Codec
Format profile : High@L4.1
Format settings, CABAC : Yes
Format settings, ReFrames : 4 frames
Codec ID : V_MPEG4/ISO/AVC
Duration : 1h 22mn
Bit rate : 6 134 Kbps
Width : 1 280 pixels
Height : 720 pixels
Display aspect ratio : 16:9
Frame rate : 23.976 fps
Color space : YUV
Chroma subsampling : 4:2:0
Bit depth : 8 bits
Scan type : Progressive
Bits/(Pixel*Frame) : 0.278
Stream size : 3.54 GiB (83%)
Writing library : x264 core 68 r1195bm 5d75a9b
Encoding settings : cabac=1 / ref=4 / deblock=1:0:0 / analyse=0x3:0x13 / me=umh / subme=7 / psy_rd=0.0:0.0 / mixed_ref=1 / me_range=16 / chroma_me=1 / trellis=1 / 8x8dct=1 / cqm=0 / deadzone=21,11 / chroma_qp_offset=0 / threads=1 / thread_queue=1 / nr=0 / decimate=1 / mbaff=0 / bframes=0 / keyint=250 / keyint_min=25 / scenecut=40 / rc=crf / crf=16.0 / qcomp=0.60 / qpmin=10 / qpmax=51 / qpstep=4 / ip_ratio=1.40 / aq=2:1.00
Default : No
Forced : No

Audio #1
ID : 2
Format : AC-3
Format/Info : Audio Coding 3
Mode extension : CM (complete main)
Format settings, Endianness : Big
Codec ID : A_AC3
Duration : 1h 22mn
Bit rate mode : Constant
Bit rate : 384 Kbps
Channel(s) : 6 channels
Channel positions : Front: L C R, Side: L R, LFE
Sampling rate : 48.0 KHz
Bit depth : 16 bits
Compression mode : Lossy
Stream size : 227 MiB (5%)
Language : Russian
Default : Yes
Forced : No

Audio #2
ID : 3
Format : AC-3
Format/Info : Audio Coding 3
Mode extension : CM (complete main)
Format settings, Endianness : Big
Codec ID : A_AC3
Duration : 1h 22mn
Bit rate mode : Constant
Bit rate : 384 Kbps
Channel(s) : 6 channels
Channel positions : Front: L C R, Side: L R, LFE
Sampling rate : 48.0 KHz
Bit depth : 16 bits
Compression mode : Lossy
Stream size : 227 MiB (5%)
Default : No
Forced : Yes

Audio #3
ID : 4
Format : AC-3
Format/Info : Audio Coding 3
Mode extension : CM (complete main)
Format settings, Endianness : Big
Codec ID : A_AC3
Duration : 1h 22mn
Bit rate mode : Constant
Bit rate : 384 Kbps
Channel(s) : 6 channels
Channel positions : Front: L C R, Side: L R, LFE
Sampling rate : 48.0 KHz
Bit depth : 16 bits
Compression mode : Lossy
Stream size : 227 MiB (5%)
Default : No
Forced : No
Свернуть
"Знаете ли Вы, что..."
  • Первый фильм из серии «Пираньи», который полностью снят в 3D.
  • Миранда Косгров прослушивалась на роль Мэдди, которую в итоге получила Даниэль Панабэйкер.
  • В первом кадре с Дэвидом Хэсселхоффом, когда юный Дэвид бежит к нему, значок у Хоффа надет задом наперед.
  • Когда Мэдди удалось выжить после нападения пираний ее куртка мокрая, а в следующем кадре уже сухая.
  • Когда показывают, как Хэсселхофф смотрит из окна своего номера на улицу, в окне отражается держащий камеру кран.
Свернуть
Скриншоты

Изображение
Изображение
Изображение
Изображение
Свернуть
_________________
ИзображениеИзображение Изображение
Изображение
 tany1984 и di-ys1 нравится это.
Не в сети
Профиль  
 Добавлено: 2012-08-31 13:19 (спустя 15 часов)
Аватара пользователя
Стаж: 6 лет 6 месяцев
Сообщений: 19961
Спасибок: 721
Лайков: 461
Сиськи говорят не детские показывают. Обязательно посмотрю! :-ok-:
_________________
It was I'am ... :jn_pu_sk:
Медали и Ордена
ИзображениеИзображение
Свернуть
Не в сети
Профиль  
 Добавлено: 2012-09-02 21:00 (спустя 2 дня 7 часов)
Стаж: 6 лет 10 месяцев
Сообщений: 21
дайте скорости
Не в сети
Профиль  
 Добавлено: 2012-09-07 09:44 (спустя 4 дня)
Стаж: 5 лет 8 месяцев
Сообщений: 1
если честно такая муть, просто блёёёёёёёёё :-О===... кроме сисек больше посмотреть не на что( фильм на троечку еле тянет.
Не в сети
Профиль  
Начать новую темуОтветить на тему  [ Сообщений: 4 ] 
Вы не можете начинать темы
Вы не можете отвечать на сообщения
Вы не можете редактировать свои сообщения
Вы не можете удалять свои сообщения