Правила форума

Здесь находятся раздачи, на которых не было полного источника (сида) более месяца.
Вы можете вернуть релиз в соответствующий раздел, для этого напишите нам в специальной теме и встаньте на раздачу.
Новые релизы, повторяющие релизы в архиве, повторами не считаются.
Начать новую темуОтветить на тему  [ Сообщений: 4 ] 
Сообщения
 Добавлено: 2014-01-21 11:57
Модератор
Аватара пользователя
Стаж: 7 лет 9 месяцев
Сообщений: 4521
Спасибок: 112835
Лайков: 583
План побега

Escape Plan


Изображение


Год выпуска: 2013
Страна: США
Жанр: Боевик, триллер, детектив
Продолжительность: 01:55:35
Перевод: Профессиональный (полное дублирование) Чистый звук
Режиссер: Микаэль Хофстрём
В ролях: Сильвестр Сталлоне, Арнольд Шварценеггер, Джеймс Кэвизел, Фифти Сент, Винни Джонс, Винсент Д’Онофрио, Эми Райан, Фаран Таир, Сэм Нил, Мэтт Джералд
Описание: Один из самых выдающихся мировых специалистов по системам безопасности соглашается на последнюю рисковую операцию: сбежать из суперсекретной высокотехнологичной тюрьмы, которую называют «Гробницей». Преданный Рэй Бреслин вынужден прибегнуть к помощи напарника — заключенного Эмиля Ротмайера, чтобы разработать отчаянный и практически неосуществимый план побега из самой защищенной тюрьмы в мире!
Изображение
Sample:
http://multi-up.com/942530/
Качество: WEBDL (720p)
Формат: MKV
Видео кодек: MPEG-4 AVC
Аудио кодек: AC3
Видео: 1280x532 25fps 4170Kbps
Аудио:
Аудио Rus: 48kHz 2ch 320kbps
Аудио Eng: 48KHz 6ch 384kbps
Дополнительно: Сохранены оригинальные чаптеры
"MediaInfo"
General
Unique ID : 232468505889962986751853823459046185028 (0xAEE3CE3FDE22B490A1AFF965F5F3D844)
Complete name : C:\Users\Никита\Desktop\Escape.Plan.2013.D.WEBDL.720p.mkv
Format : Matroska
Format version : Version 2
File size : 4.02 GiB
Duration : 1h 55mn
Overall bit rate : 4 973 Kbps
Encoded date : UTC 2014-01-21 07:30:41
Writing application : mkvmerge v5.8.0 ('No Sleep / Pillow') built on Sep 2 2012 15:37:04
Writing library : libebml v1.2.3 + libmatroska v1.3.0

Video
ID : 1
Format : AVC
Format/Info : Advanced Video Codec
Format profile : Main@L3.1
Format settings, CABAC : No
Format settings, ReFrames : 2 frames
Codec ID : V_MPEG4/ISO/AVC
Duration : 1h 55mn
Bit rate : 4 170 Kbps
Width : 1 280 pixels
Height : 532 pixels
Display aspect ratio : 2.40:1
Frame rate : 23.976 fps
Color space : YUV
Chroma subsampling : 4:2:0
Bit depth : 8 bits
Scan type : Progressive
Bits/(Pixel*Frame) : 0.255
Stream size : 3.37 GiB (84%)
Language : English
Default : Yes
Forced : No
Color primaries : BT.709-5, BT.1361, IEC 61966-2-4, SMPTE RP177
Transfer characteristics : BT.709-5, BT.1361
Matrix coefficients : BT.709-5, BT.1361, IEC 61966-2-4 709, SMPTE RP177

Audio #1
ID : 2
Format : AC-3
Format/Info : Audio Coding 3
Mode extension : CM (complete main)
Codec ID : A_AC3
Duration : 1h 55mn
Bit rate mode : Constant
Bit rate : 320 Kbps
Channel(s) : 2 channels
Channel positions : Front: L R
Sampling rate : 48.0 KHz
Bit depth : 16 bits
Compression mode : Lossy
Stream size : 265 MiB (6%)
Language : Russian
Default : Yes
Forced : No

Audio #2
ID : 3
Format : AC-3
Format/Info : Audio Coding 3
Mode extension : CM (complete main)
Codec ID : A_AC3
Duration : 1h 55mn
Bit rate mode : Constant
Bit rate : 384 Kbps
Channel(s) : 6 channels
Channel positions : Front: L C R, Side: L R, LFE
Sampling rate : 48.0 KHz
Bit depth : 16 bits
Compression mode : Lossy
Stream size : 317 MiB (8%)
Language : English
Default : No
Forced : No

Menu
00:00:00.000 : en:Chapter 1
00:06:33.000 : en:Chapter 2
00:15:41.000 : en:Chapter 3
00:19:50.000 : en:Chapter 4
00:26:22.000 : en:Chapter 5
00:33:08.000 : en:Chapter 6
00:39:14.000 : en:Chapter 7
00:45:41.000 : en:Chapter 8
00:50:07.000 : en:Chapter 9
00:58:59.000 : en:Chapter 10
01:06:45.000 : en:Chapter 11
01:13:50.000 : en:Chapter 12
01:21:04.000 : en:Chapter 13
01:27:58.000 : en:Chapter 14
01:35:35.000 : en:Chapter 15
01:42:12.000 : en:Chapter 16
Свернуть

"Скриншоты"
Изображение
Изображение
Изображение
Изображение
Свернуть
_________________
Изображение
 Andrusha76 нравится это.
Не в сети
Профиль  
 Добавлено: 2014-01-21 13:16 (спустя 1 час 18 минут)
Аватара пользователя
Стаж: 8 лет 6 месяцев
Возраст: 40
Сообщений: 130
Спасибок: 333
супер, качество и фильм на высоте....
Не в сети
Профиль  
 Добавлено: 2014-01-22 22:09 (спустя 1 день 8 часов)
Аватара пользователя
Стаж: 8 лет 1 месяц
Сообщений: 121
Лайков: 2
чем отличаются WEBDL и hd ?
Не в сети
Профиль  
 Добавлено: 2014-01-22 23:06 (спустя 57 минут)
Модератор
Аватара пользователя
Стаж: 7 лет 9 месяцев
Сообщений: 4521
Спасибок: 112835
Лайков: 583

prof12:

чем отличаются WEBDL и hd ?
на примере 1,37 Гб сравнение
http://screenshotcomparison.com/comparison/58561
webdlrip чаще всего ничем не уступает Bluray
Не в сети
Профиль  
Начать новую темуОтветить на тему  [ Сообщений: 4 ] 
Вы не можете начинать темы
Вы не можете отвечать на сообщения
Вы не можете редактировать свои сообщения
Вы не можете удалять свои сообщения