Правила форума

Здесь находятся раздачи, на которых не было полного источника (сида) более месяца.
Вы можете вернуть релиз в соответствующий раздел, для этого напишите нам в специальной теме и встаньте на раздачу.
Новые релизы, повторяющие релизы в архиве, повторами не считаются.
Начать новую темуОтветить на тему  [ Сообщений: 4 ] 
Сообщения
 Добавлено: 2014-01-22 23:02
DVD Release Group
Аватара пользователя
Стаж: 7 лет 1 месяц
Сообщений: 3570
Спасибок: 247823
Лайков: 1020
План побега

Escape Plan


Изображение


Год выпуска: 2013
Страна: США
Жанр: Боевик, триллер, детектив
Продолжительность: 01:55:36
Перевод: Профессиональный (полное дублирование) Чистый звук
Режиссер: Микаэль Хофстрём
В ролях: Сильвестр Сталлоне, Арнольд Шварценеггер, Джеймс Кэвизел, Фифти Сент, Винни Джонс, Винсент Д’Онофрио, Эми Райан, Фаран Таир, Сэм Нил, Мэтт Джералд
Описание: Один из самых выдающихся мировых специалистов по системам безопасности соглашается на последнюю рисковую операцию: сбежать из суперсекретной высокотехнологичной тюрьмы, которую называют «Гробницей». Преданный Рэй Бреслин вынужден прибегнуть к помощи напарника — заключенного Эмиля Ротмайера, чтобы разработать отчаянный и практически неосуществимый план побега из самой защищенной тюрьмы в мире!
Изображение
Качество: BDRip 1080p
Формат: MKV
Видео кодек: H.264
Аудио кодек: AC3, DTS
Видео: 1920x800 23.98fps 9460Кбит/сек
Аудио:
Аудио Rus: AC3 48KHz 6ch 384Kbps
Аудио Eng: DTS 48KHz 6ch 1510Kbps
"MediaInfo"
Формат : Matroska
Версия формата : Version 2
Размер файла : 9,35 Гбайт
Продолжительность : 1 ч. 55 м.
Общий поток : 11,6 Мбит/сек
Дата кодирования : UTC 2014-01-23 03:35:39
Программа кодирования : mkvmerge v6.7.0 ('Back to the Ground') 32bit built on Jan 8 2014 15:03:17
Библиотека кодирования : libebml v1.3.0 + libmatroska v1.4.1

Видео
Идентификатор : 1
Формат : AVC
Формат/Информация : Advanced Video Codec
Профиль формата : High@L4.1
Параметр CABAC формата : Да
Параметр ReFrames формата : 5 кадров
Идентификатор кодека : V_MPEG4/ISO/AVC
Продолжительность : 1 ч. 55 м.
Битрейт : 9460 Кбит/сек
Ширина : 1920 пикселей
Высота : 800 пикселей
Соотношение сторон : 2,40:1
Частота кадров : 23,976 кадра/сек
Цветовое пространство : YUV
Субдискретизация насыщенности : 4:2:0
Битовая глубина : 8 бит
Тип развёртки : Прогрессивная
Бит/(Пиксели*Кадры) : 0.257
Размер потока : 7,64 Гбайт (82%)
Язык : English
Default : Да
Forced : Нет

Аудио #1
Идентификатор : 2
Формат : AC-3
Формат/Информация : Audio Coding 3
Расширение режима : CM (complete main)
Идентификатор кодека : A_AC3
Продолжительность : 1 ч. 55 м.
Вид битрейта : Постоянный
Битрейт : 384 Кбит/сек
Каналы : 6 каналов
Расположение каналов : Front: L C R, Side: L R, LFE
Частота : 48,0 КГц
Битовая глубина : 16 бит
Метод сжатия : С потерями
Размер потока : 317 Мбайт (3%)
Язык : Russian
Default : Да
Forced : Нет

Аудио #2
Идентификатор : 3
Формат : DTS
Формат/Информация : Digital Theater Systems
Идентификатор кодека : A_DTS
Продолжительность : 1 ч. 55 м.
Вид битрейта : Постоянный
Битрейт : 1510 Кбит/сек
Каналы : 6 каналов
Расположение каналов : Front: L C R, Side: L R, LFE
Частота : 48,0 КГц
Битовая глубина : 24 бит
Метод сжатия : С потерями
Размер потока : 1,22 Гбайт (13%)
Язык : English
Default : Нет
Forced : Нет

Меню
00:00:00.000 : en:00:00:00.000
00:06:33.643 : en:00:06:33.643
00:15:40.940 : en:00:15:40.940
00:19:50.439 : en:00:19:50.439
00:26:22.706 : en:00:26:22.706
00:33:08.111 : en:00:33:08.111
00:39:14.310 : en:00:39:14.310
00:45:41.697 : en:00:45:41.697
00:50:07.171 : en:00:50:07.171
00:58:59.494 : en:00:58:59.494
01:06:44.834 : en:01:06:44.834
01:13:51.135 : en:01:13:51.135
01:21:04.359 : en:01:21:04.359
01:27:58.523 : en:01:27:58.523
01:35:35.188 : en:01:35:35.188
01:42:14.879 : en:01:42:14.879
Свернуть

"Скриншоты"
Изображение
Изображение
Изображение
Свернуть


Последний раз редактировалось rastor 2014-01-24 18:53, всего редактировалось 5 раз(а).
Не в сети
Профиль  
 Добавлено: 2014-01-23 08:12 (спустя 9 часов)
DVD Release Group
Аватара пользователя
Стаж: 7 лет 1 месяц
Сообщений: 3570
Спасибок: 247823
Лайков: 1020
Торрент-файл обновлен на BDRip 1080p
Не в сети
Профиль  
 Добавлено: 2014-01-23 20:51 (спустя 12 часов)
Аватара пользователя
Стаж: 7 лет 11 месяцев
Сообщений: 198
Лайков: 4
озолотим?
Не в сети
Профиль  
 Добавлено: 2014-02-07 11:57 (спустя 14 дней)
Аватара пользователя
Стаж: 9 лет 1 месяц
Сообщений: 8112
Спасибок: 122344
Лайков: 1196
http://nnportal.org/tracker/zarubejnoe- ... 24786.html
В сети
Профиль  
Начать новую темуОтветить на тему  [ Сообщений: 4 ] 
Вы не можете начинать темы
Вы не можете отвечать на сообщения
Вы не можете редактировать свои сообщения
Вы не можете удалять свои сообщения