Правила форума

Здесь находятся раздачи, на которых не было полного источника (сида) более месяца.
Вы можете вернуть релиз в соответствующий раздел, для этого напишите нам в специальной теме и встаньте на раздачу.
Новые релизы, повторяющие релизы в архиве, повторами не считаются.
Начать новую темуОтветить на тему  [ Сообщений: 5 ] 
Сообщения
 Добавлено: 2011-10-16 22:20
Книголюб
Аватара пользователя
Стаж: 7 лет 2 месяца
Сообщений: 2823
Спасибок: 48826
Лайков: 73
Планы изменились
Change of Plans
Изображение


Год выпуска: 2011
Страна: США, Канада
Слоган: «Sometimes life gives you more than you bargained for.»
Жанр: драма, комедия, семейный
Продолжительность: 01:27:56
Перевод: Любительский (одноголосый закадровый)

Режиссёр: Джон Кент Харрисон
В ролях: Брук Уайт, Джо Флэниган, Джейми Линн Эванс, Бобби Сото, Джейкоб Демпси, Кларисса Сувоко, Филисия Рашад
Описание: Жизнь супружеской пары Джейсона и Салли Дэнвилл резко меняется, когда лучшая подруга Салли вместе с мужем погибает в авиакатастрофе. Теперь, согласно оставленному завещанию, им предстоит стать опекунами четверых детей.
Мировая премьера: 8 января 2011
Изображение 8.139 36

Качество: BDRip 720p
Формат: MKV
Видео кодек: MPEG2
Аудио кодек: DTS
Видео: 5819 kb/s, 1280x720
Аудио #1: Russian: AC3, 448 kb/s (6 ch)
Аудио #2: English: AC3, 640 kb/s (6 ch)

MediaInfo
Общее
Уникальный идентификатор : 195896228052458520964091875685068735978 (0x93603DBCA74C3E34B2F0BD33979485EA)
Полное имя : I:\Cha.nge.BDRip.720.mkv
Формат : Matroska
Размер файла : 4,63 Гбайт
Продолжительность : 2 ч. 55 м.
Общий поток : 3772 Кбит/сек
Название фильма : sem-coplans720p
Дата кодирования : UTC 2011-10-12 01:35:36
Программа кодирования : mkvmerge v4.2.0 ('No Talking') сборка от Jul 28 2010 18:38:23
Библиотека кодирования : libebml v1.0.0 + libmatroska v1.0.0

Видео
Идентификатор : 1
Формат : AVC
Формат/Информация : Advanced Video Codec
Профиль формата : High@L4.1
Параметр CABAC формата : Да
Параметр ReFrames формата : 5 кадров
Режим смешивания : Header stripping
Идентификатор кодека : V_MPEG4/ISO/AVC
Продолжительность : 2 ч. 55 м.
Вид битрейта : Переменный
Битрейт : 2609 Кбит/сек
Номинальный битрейт : 5819 Кбит/сек
Максимальный битрейт : 8000 Кбит/сек
Ширина : 1280 пикс.
Высота : 720 пикс.
Соотношение сторон : 16:9
Частота кадров : 23,976 кадр/сек
Цветовое пространство : YUV
Подвыборка цветности : 4:2:0
Битовая глубина : 8 бит
Тип развёртки : Прогрессивная
Бит/(Пиксели*Кадры) : 0.118
Размер потока : 3,20 Гбайт (69%)
Библиотека кодирования : x264 core 115 r1995 c1e60b9
Настройки программы : cabac=1 / ref=5 / deblock=1:0:0 / analyse=0x3:0x133 / me=umh / subme=7 / psy=1 / psy_rd=1.00:0.00 / mixed_ref=1 / me_range=16 / chroma_me=1 / trellis=1 / 8x8dct=1 / cqm=0 / deadzone=21,11 / fast_pskip=1 / chroma_qp_offset=-2 / threads=6 / sliced_threads=0 / nr=0 / decimate=1 / interlaced=0 / bluray_compat=0 / constrained_intra=0 / bframes=5 / b_pyramid=0 / b_adapt=1 / b_bias=0 / direct=1 / weightb=1 / open_gop=0 / weightp=2 / keyint=240 / keyint_min=24 / scenecut=40 / intra_refresh=0 / rc_lookahead=40 / rc=2pass / mbtree=1 / bitrate=5819 / ratetol=1.0 / qcomp=0.60 / qpmin=0 / qpmax=69 / qpstep=4 / cplxblur=20.0 / qblur=0.5 / vbv_maxrate=8000 / vbv_bufsize=25000 / nal_hrd=vbr / ip_ratio=1.40 / aq=1:1.00

Аудио #1
Идентификатор : 2
Формат : AC-3
Формат/Информация : Audio Coding 3
Расширение режима : CM (complete main)
Режим смешивания : Header stripping
Идентификатор кодека : A_AC3
Продолжительность : 2 ч. 55 м.
Вид битрейта : Постоянный
Битрейт : 448 Кбит/сек
Каналы : 6 каналов
Расположение каналов : Front: L C R, Side: L R, LFE
Частота : 48,0 КГц
Битовая глубина : 16 бит
Метод сжатия : С потерями
Размер потока : 563 Мбайт (12%)
Язык : Russian

Аудио #2
Идентификатор : 3
Формат : AC-3
Формат/Информация : Audio Coding 3
Расширение режима : CM (complete main)
Режим смешивания : Header stripping
Идентификатор кодека : A_AC3
Продолжительность : 2 ч. 55 м.
Вид битрейта : Постоянный
Битрейт : 640 Кбит/сек
Каналы : 6 каналов
Расположение каналов : Front: L C R, Side: L R, LFE
Частота : 48,0 КГц
Битовая глубина : 16 бит
Метод сжатия : С потерями
Размер потока : 805 Мбайт (17%)
Язык : English

Текст
Идентификатор : 4
Формат : UTF-8
Идентификатор кодека : S_TEXT/UTF8
Идентификатор кодека/Информация : UTF-8 Plain Text
Язык : English

Меню
00:00:00.000 : en:00:00:00.000
00:05:34.668 : en:00:05:34.668
00:10:31.881 : en:00:10:31.881
00:15:14.413 : en:00:15:14.413
00:21:50.809 : en:00:21:50.809
00:24:03.400 : en:00:24:03.400
00:29:23.929 : en:00:29:23.929
00:35:02.684 : en:00:35:02.684
00:39:12.850 : en:00:39:12.850
00:46:00.591 : en:00:46:00.591
00:52:26.477 : en:00:52:26.477
00:59:51.922 : en:00:59:51.922
01:04:33.578 : en:01:04:33.578
01:10:02.657 : en:01:10:02.657
01:14:59.704 : en:01:14:59.704
01:17:18.759 : en:01:17:18.759
01:22:26.441 : en:01:22:26.441
01:26:23.595 : en:01:26:23.595


Свернуть

Скриншоты
Изображение
Изображение
Изображение
Изображение
Свернуть


Последний раз редактировалось coldun 2011-10-20 13:28, всего редактировалось 1 раз.
Не в сети
Профиль  
 Добавлено: 2011-10-17 18:45 (спустя 20 часов)
Аватара пользователя
Стаж: 8 лет 3 месяца
Возраст: 43
Сообщений: 3290
Спасибок: 21012
Лайков: 3
только у меня скрины черные ? :)
_________________
Изображение
Не в сети
Профиль  
 Добавлено: 2011-10-17 22:01 (спустя 3 часа)
Top-releaser
Аватара пользователя
Стаж: 8 лет 5 месяцев
Сообщений: 6859
Спасибок: 440295
Лайков: 34
Иванишко
У меня тоже
Не в сети
Профиль  
 Добавлено: 2011-10-18 01:59 (спустя 3 часа)
Аватара пользователя
Стаж: 6 лет 2 месяца
Возраст: 33
Сообщений: 309
Спасибок: 598
Лайков: 5
Главное размер правильный-)) это наверно конец фильма :-D
_________________
Не теряйте свою голову, жизнь хочет вам по ней погладить...
Не в сети
Профиль  
 Добавлено: 2011-10-18 09:09 (спустя 7 часов)
Аватара пользователя
Стаж: 8 лет 3 месяца
Возраст: 43
Сообщений: 3290
Спасибок: 21012
Лайков: 3
второй скрин ваще прикольный :-D
_________________
Изображение
Не в сети
Профиль  
Начать новую темуОтветить на тему  [ Сообщений: 5 ] 
Вы не можете начинать темы
Вы не можете отвечать на сообщения
Вы не можете редактировать свои сообщения
Вы не можете удалять свои сообщения