Правила форума

Здесь находятся раздачи, на которых не было полного источника (сида) более месяца.
Вы можете вернуть релиз в соответствующий раздел, для этого напишите нам в специальной теме и встаньте на раздачу.
Новые релизы, повторяющие релизы в архиве, повторами не считаются.
Начать новую темуОтветить на тему  [ Сообщений: 3 ] 
Сообщения
 Добавлено: 2014-08-07 05:15
DVD Release Group
Аватара пользователя
Стаж: 7 лет 1 месяц
Сообщений: 3569
Спасибок: 247801
Лайков: 1020
Поддубный


Изображение


Год выпуска: 2014
Страна: Россия
Жанр: Драма, спорт, биография
Продолжительность: 02:02:37
Режиссер: Глеб Орлов
В ролях: Михаил Пореченков, Дени Лаван, Владимир Ильин, Юрий Колокольников, Роман Мадянов, Александр Михайлов, Катерина Шпица, Максим Сапрыкин, Петр Крылов, Андрей Дебрин
Описание: Его называли Чемпион чемпионов. О силе и волевом характере Поддубного слагали легенды. И в 50 великий борец играючи одолевал молодых атлетов, а вопросах чести и справедливости не знал компромиссов. И лишь любовь смогла уложить Русского Богатыря на обе лопатки…
Изображение
Sample:
http://multi-up.com/990971
Качество: WEB-DL 1080p
Формат: MKV
Видео кодек: H.264
Аудио кодек: AC3
Видео: 1920x810 24fps 3901kbps
Аудио: 48kHz 6ch 384kbps
"MediaInfo"
Формат : Matroska
Версия формата : Version 4 / Version 2
Размер файла : 3,74 Гбайт
Продолжительность : 2 ч. 2 м.
Общий поток : 4372 Кбит/сек
Дата кодирования : UTC 2014-08-06 19:13:05
Программа кодирования : mkvmerge v7.0.0 ('Where We Going') 64bit built on Jun 9 2014 15:16:27
Библиотека кодирования : libebml v1.3.0 + libmatroska v1.4.1
DURATION : 02:02:37.600000000
NUMBER_OF_FRAMES : 229925
NUMBER_OF_BYTES : 353164800
_STATISTICS_WRITING_APP : mkvmerge v7.0.0 ('Where We Going') 64bit built on Jun 9 2014 15:16:27
_STATISTICS_WRITING_DATE_UTC : 2014-08-06 19:13:05
_STATISTICS_TAGS : BPS DURATION NUMBER_OF_FRAMES NUMBER_OF_BYTES

Видео
Идентификатор : 1
Формат : AVC
Формат/Информация : Advanced Video Codec
Профиль формата : High@L4.0
Параметр CABAC формата : Да
Параметр ReFrames формата : 5 кадров
Идентификатор кодека : V_MPEG4/ISO/AVC
Продолжительность : 2 ч. 2 м.
Битрейт : 3901 Кбит/сек
Ширина : 1920 пикселей
Высота : 810 пикселей
Соотношение сторон : 2,40:1
Режим частоты кадров : Постоянный
Частота кадров : 24,000 кадра/сек
Цветовое пространство : YUV
Субдискретизация насыщенности : 4:2:0
Битовая глубина : 8 бит
Тип развёртки : Прогрессивная
Бит/(Пиксели*Кадры) : 0.105
Размер потока : 3,34 Гбайт (89%)
Язык : English
Default : Да
Forced : Нет
Основные цвета : BT.709
Характеристики трансфера : BT.709
Коэффициенты матрицы : BT.709

Аудио
Идентификатор : 2
Формат : AC-3
Формат/Информация : Audio Coding 3
Расширение режима : CM (complete main)
Параметр Endianness формата : Big
Идентификатор кодека : A_AC3
Продолжительность : 2 ч. 2 м.
Вид битрейта : Постоянный
Битрейт : 384 Кбит/сек
Каналы : 6 каналов
Расположение каналов : Front: L C R, Side: L R, LFE
Частота : 48,0 КГц
Битовая глубина : 16 бит
Метод сжатия : С потерями
Размер потока : 337 Мбайт (9%)
Язык : Russian
Default : Да
Forced : Нет

Меню
00:00:00.000 : en:Глава 1
00:04:57.000 : en:Глава 2
00:07:26.000 : en:Глава 3
00:11:40.000 : en:Глава 4
00:18:55.000 : en:Глава 5
00:23:09.000 : en:Глава 6
00:29:09.000 : en:Глава 7
00:35:19.000 : en:Глава 8
00:41:52.000 : en:Глава 9
00:48:36.000 : en:Глава 10
00:55:44.000 : en:Глава 11
01:00:12.000 : en:Глава 12
01:07:12.000 : en:Глава 13
01:10:44.000 : en:Глава 14
01:15:03.000 : en:Глава 15
01:22:49.000 : en:Глава 16
01:28:36.000 : en:Глава 17
01:35:12.000 : en:Глава 18
01:39:49.000 : en:Глава 19
01:45:31.000 : en:Глава 20
01:51:33.000 : en:Глава 21
01:55:36.000 : en:Глава 22
Свернуть

"Скриншоты"
Изображение
Изображение
Изображение
Изображение
Изображение
Изображение
Свернуть
Не в сети
Профиль  
 Добавлено: 2014-08-12 17:41 (спустя 5 дней)
Аватара пользователя
Стаж: 7 лет 1 месяц
Сообщений: 43
Спасибок: 20
Лайков: 1
А почему в Зарубежном? :du_ma_et:
Не в сети
Профиль  
 Добавлено: 2014-08-18 00:36 (спустя 5 дней)
Аватара пользователя
Стаж: 9 лет 1 месяц
Сообщений: 2154
Спасибок: 778
Лайков: 14
Рейтинг кинопоиска 7.5 – серьезно? Надо заценить, посмотрим как там Пореченков на майонезе раскачался.
_________________
PSN
Изображение
Свернуть
Изображение
 Forty нравится это.
Не в сети
Профиль  
Начать новую темуОтветить на тему  [ Сообщений: 3 ] 
Вы не можете начинать темы
Вы не можете отвечать на сообщения
Вы не можете редактировать свои сообщения
Вы не можете удалять свои сообщения