Правила форума

Здесь находятся раздачи, на которых не было полного источника (сида) более месяца.
Вы можете вернуть релиз в соответствующий раздел, для этого напишите нам в специальной теме и встаньте на раздачу.
Новые релизы, повторяющие релизы в архиве, повторами не считаются.
Начать новую темуОтветить на тему  [ Сообщений: 3 ] 
Сообщения
 Добавлено: 2011-09-13 12:13
Аватара пользователя
Стаж: 8 лет 11 месяцев
Возраст: 36
Сообщений: 440
Спасибок: 5166
Подстава / Setup

Изображение Изображение Изображение Изображение
Изображение

Год выпуска: 2011
Страна: США
Жанр: боевик, драма, криминал
Перевод: Любительский (двухголосый), Любительский (одноголосый), Любительский (одноголосый) по ссылке
Бюджет: $22 000 000
Мировая премьера: 20 сентября 2011
Режиссер:Майк Гюнтер
В ролях: Фифти Сент, Брюс Уиллис, Райан Филипп, Дженна Деван, Джеймс Римар, Рэнди Кутюр, Уилл Юн Ли, Шон Тоуб, Джей Карнс, Сьюзи Абромейт
Описание: Лучшие друзья Сони, Винсент и Дейв вместе выросли на бандитских улицах и зарабатывают на жизнь разбоем. Устав от такой жизни, они решают покончить с преступлениями, когда завершат последнее криминальное дело. Однако один их них решил прекратить преступный путь двоих других в полном смысле слова. После удачного, но кровавого похищения алмазов Винсент стреляет в своих товарищей и бросает их умирать. Дейв погибает на месте, а Сони чудом остается в живых. Теперь у него одна цель - отомстить предателю.
MPAA: Изображение - Лицам до 17 лет обязательно присутствие взрослого
Качество: BD Remux
Формат: BDAV
Видеокодек: AVC
Аудиокодек: DTS, AC3
Видео: AVC; 1920x1080 (16:9); 23,976 fps
Аудио №1: Russian / / ; AC3; 448 Kbps; CBR; 6 ch
Аудио №2: Russian / / ; AC3; 448 Kbps; CBR; 6 ch
Аудио №3: English / / ; DTS-HD; VBR; 6 ch; 24 bit
Субтитры: Russian / /
Дополнительная информация:
    За видео благодарность HDRoad
    За DVO благодарность Электричке
    Автор VO неизвестен, но и ему спасибо.
    Перевод от zamez

"MediaInfo"
General
Complete name : D:\Set.Up.2011.BD.REMUX\\BDMV\PLAYLIST\00000.mpls
Format : Blu-ray Playlist
File size : 428 Bytes
Duration : 1h 24mn
Overall bit rate : 0

Video
ID : 4113 (0x1011)
Menu ID : 1 (0x1)
Format : AVC
Format/Info : Advanced Video Codec
Format profile : High@L4.1
Format settings, CABAC : Yes
Format settings, ReFrames : 4 frames
Codec ID : 27
Duration : 1h 24mn
Bit rate mode : Variable
Bit rate : 21.3 Mbps
Maximum bit rate : 37.0 Mbps
Width : 1 920 pixels
Height : 1 080 pixels
Display aspect ratio : 16:9
Frame rate : 23.976 fps
Color space : YUV
Chroma subsampling : 4:2:0
Bit depth : 8 bits
Scan type : Progressive
Bits/(Pixel*Frame) : 0.428
Stream size : 12.6 GiB (86%)
Source : 00000.m2ts

Audio #1
ID : 4352 (0x1100)
Format : AC-3
Format/Info : Audio Coding 3
Duration : 1h 24mn
Sampling rate : 48.0 KHz
Compression mode : Lossy

Audio #2
ID : 4353 (0x1101)
Format : AC-3
Format/Info : Audio Coding 3
Duration : 1h 24mn
Sampling rate : 48.0 KHz
Compression mode : Lossy

Audio #3
ID : 4354 (0x1102)
Format : DTS
Format/Info : Digital Theater Systems
Duration : 1h 24mn
Sampling rate : 48.0 KHz
Compression mode : Lossy

Text
ID : 4608 (0x1200)
Format : PGS

Menu
00:00:00.000 : Chapter 1
00:05:57.606 : Chapter 2
00:12:24.910 : Chapter 3
00:18:02.123 : Chapter 4
00:23:00.878 : Chapter 5
00:30:54.352 : Chapter 6
00:37:02.387 : Chapter 7
00:42:14.072 : Chapter 8
00:46:11.768 : Chapter 9
00:51:07.313 : Chapter 10
00:54:36.690 : Chapter 11
01:00:48.811 : Chapter 12
01:05:30.635 : Chapter 13
01:10:15.670 : Chapter 14
01:14:27.837 : Chapter 15
01:19:21.090 : Chapter 16
Свернуть
"Скриншоты"
Изображение
Изображение
Изображение
Изображение
Изображение
Изображение
Изображение
Изображение
Изображение

Свернуть


Абоненты Билайн НН не забывайте прописывать ретрекер:

http://fttb.retracker.nnov.ru:666/announce

http://195.98.50.122/announce

Изображение


Последний раз редактировалось timosh 2011-09-18 09:56, всего редактировалось 3 раз(а).
Не в сети
Профиль  
 Добавлено: 2011-09-13 18:25 (спустя 6 часов)
Аватара пользователя
Стаж: 8 лет 11 месяцев
Возраст: 36
Сообщений: 440
Спасибок: 5166

zamez:

Хотел сделать по быстрому, так как озвучек не было и дорожка уже была готова, но вчера тут же появилось два релиза (одноголоска и двухголоска), поэтому я стопорнул всё для доработки перевода. Будет в конце недели и возможно две версии перевода, сейчас у меня появились более горячие релизы!
С zamez-ом облом...
До лицензии далеко, качаем то что есть :)
Не в сети
Профиль  
 Добавлено: 2011-09-18 09:55 (спустя 4 дня)
Аватара пользователя
Стаж: 8 лет 11 месяцев
Возраст: 36
Сообщений: 440
Спасибок: 5166
Озвучен 12 сентября 2011 года.
Аудиотрек под BD, цензурная версия.

http://narod.ru/disk/25412621001/Setup. ... R.ac3.html

"MediaInfo"
General
Complete name : D:\Setup.2011.BDRip.VOzamez.CENSOR.ac3
Format : AC-3
Format/Info : Audio Coding 3
File size : 272 MiB
Duration : 1h 24mn
Overall bit rate : 448 Kbps

Audio
Format : AC-3
Format/Info : Audio Coding 3
Mode extension : CM (complete main)
Duration : 1h 24mn
Bit rate mode : Constant
Bit rate : 448 Kbps
Channel(s) : 6 channels
Channel positions : Front: L C R, Side: L R, LFE
Sampling rate : 48.0 KHz
Bit depth : 16 bits
Compression mode : Lossy
Stream size : 272 MiB (100%)


Свернуть
Не в сети
Профиль  
Начать новую темуОтветить на тему  [ Сообщений: 3 ] 
Вы не можете начинать темы
Вы не можете отвечать на сообщения
Вы не можете редактировать свои сообщения
Вы не можете удалять свои сообщения