Правила форума

Здесь находятся раздачи, на которых не было полного источника (сида) более месяца.
Вы можете вернуть релиз в соответствующий раздел, для этого напишите нам в специальной теме и встаньте на раздачу.
Новые релизы, повторяющие релизы в архиве, повторами не считаются.
Начать новую темуОтветить на тему  [ Сообщений: 3 ] 
Сообщения
 Добавлено: 2012-05-19 21:42
Руководитель релиз-группы
Аватара пользователя
Стаж: 7 лет 5 месяцев
Возраст: 31
Сообщений: 3407
Спасибок: 46729
Лайков: 5
Изображение

Пожиратели
Intruders


Год выпуска: 2011
Страна: США, Великобритания, Испания
Слоган: «Ваш страх разбудит их»
Жанр: ужасы, триллер
Продолжительность: 01:35:53
Перевод: Профессиональный (полное дублирование)
Режиссер: Хуан Карлос Фреснадильо
Сценарий: Николас Касарьего, Хайми Маркес
Продюсер: Белен Атьенца, Мерседес Гамеро, Энрике Лопез Лавин
Оператор: Энрике Шедьяк
Композитор: Роке Баньос
В ролях: Клайв Оуэн, Кэрис Ван Хаутен, Даниэль Брюль, Керри Фокс, Элла Пурнелла, Лолита Чакрабарти, Пилар Лопес де Айяла, Марк Уингетт, Эктор Альтерио, Адам Лиз
Бюджет: $13 000 000
Сборы в мире: $3 012 210
Описание: В Мадриде 8-летний мальчик Хуан рассказывает родителям жуткие истории. Его мать, Луиза, предполагает, что богатое воображение отрока, подпитанное яркими и реалистичными ночными кошмарами являются основной причиной нарушения сна и психического надлома ребенка. Однако Хуан продолжает настаивать на том, что жуткие существа вовсе не плод его больного воображения.
В то же самое время в Лондоне 11-летняя Миа рассказывает сверстниками устрашающие истории об инфернальном чудовище, которое ищет контакта с миром людей через комнату маленького мальчика где-то в материковой части Европы...
Изображение
MPAA: Изображение
Релиз: Изображение Раздача группы: Изображение
Качество: DVD5 (сжатый)
Формат: DVD Video
Видео: MPEG2; PAL 16:9 (720x576)
Аудио #1: Dolby AC3, 6 ch, 384 Kbps Russian
Аудио #2: Dolby AC3, 6 ch, 448 Kbps English
Субтитры: английские, русские, польские, латышские, литовские, эстонские, украинские
Дополнительная информация :
Исходник : DVD9 (6.43 Гб) [лицензия, PAL 16:9]
Убрано : допы, реклама, заставки, предупреждения, Polish (Dolby AC3, 6 ch)
Сжатие фильма : нет (сжимались финальные титры на 25 %)
Изображение
использовались программы
    DVDRemakePro
    Photoshop
    MuxMan
    Rebuilder и CCE (Cinema Craft Encoder), 5 проходов
    Работоспособность проверена на софтовом плеере Windows Media и бытовом LG
Свернуть
DVDInfo
    Title: Pozhirateli_2011_DVD5.[R.G.Daredevil]
    Size: 4.36 Gb ( 4 575 440,00 KBytes ) - DVD-5
    Enabled regions: 1, 2, 3, 4, 5, 6, 7, 8

    VTS_01 :
    Play Length: 00:00:00
    Video: PAL 16:9 (720x576) VBR, Auto Letterboxed
    Audio:
    English (Dolby AC3, 6 ch)

    VTS_02 :
    Play Length: 00:00:00
    Video: PAL 16:9 (720x576) VBR, Auto Letterboxed
    Audio:
    English (Dolby AC3, 6 ch)

    VTS_03 :
    Play Length: 00:00:00
    Video: PAL 16:9 (720x576) VBR, Auto Letterboxed

    VTS_04 :
    Play Length: 00:00:00
    Video: PAL 16:9 (720x576) VBR, Auto Letterboxed
    Audio:
    English (Dolby AC3, 2 ch)
    Subtitles:
    English
    Russian
    Polish
    Latvian
    Lithuanian
    Estonian
    Ukrainian

    VTS_05 :
    Play Length: 00:00:00
    Video: PAL 16:9 (720x576) VBR, Auto Letterboxed
    Audio:
    English (Dolby AC3, 2 ch)
    Subtitles:
    English
    Russian
    Polish
    Latvian
    Lithuanian
    Estonian
    Ukrainian

    VTS_06 :
    Play Length: 00:00:00+00:00:00+00:00:00
    Video: PAL 16:9 (720x576) VBR, Auto Letterboxed
    Audio:
    English (Dolby AC3, 2 ch)

    VTS_07 :
    Play Length: 00:00:00
    Video: PAL 16:9 (720x576) VBR, Auto Letterboxed
    Audio:
    English (Dolby AC3, 2 ch)
    Subtitles:
    English
    Russian
    Polish
    Latvian
    Lithuanian
    Estonian
    Ukrainian

    VTS_08 :
    Play Length: 00:00:00
    Video: PAL 16:9 (720x576) VBR, Auto Letterboxed
    Audio:
    English (Dolby AC3, 2 ch)
    Subtitles:
    English
    Russian
    Polish
    Latvian
    Lithuanian
    Estonian
    Ukrainian

    VTS_09 :
    Play Length: 00:00:00
    Video: PAL 16:9 (720x576) VBR, Auto Letterboxed
    Audio:
    English (Dolby AC3, 2 ch)
    Subtitles:
    English
    Russian
    Polish
    Latvian
    Lithuanian
    Estonian
    Ukrainian

    VTS_10 :
    Play Length: 00:00:00
    Video: PAL 16:9 (720x576) VBR, Auto Letterboxed

    VTS_11 :
    Play Length: 01:35:53
    Video: PAL 16:9 (720x576) VBR, Auto Letterboxed
    Audio:
    English (Dolby AC3, 6 ch)
    Russian (Dolby AC3, 6 ch)
    Subtitles:
    English
    Russian
    Polish
    Latvian
    Lithuanian
    Estonian
    Ukrainian
    English
    Russian
    Polish

    VTS_12 :
    Play Length: 00:00:03+{00:00:00}+{00:00:00}+{00:00:00}+{00:00:00}+{00:00:00}+{00:00:00}
    Video: PAL 16:9 (720x576) VBR, Auto Letterboxed
    Audio:
    English (Dolby AC3, 2 ch)
    Subtitles:
    English
    Russian
    Polish
    English

    VTS_13 :
    Play Length: 00:00:00
    Video: PAL 16:9 (720x576) VBR, Auto Letterboxed
    Audio:
    English (Dolby AC3, 2 ch)
    Subtitles:
    English
    Russian
    Polish
    English

    VTS_14 :
    Play Length: 00:00:00
    Video: PAL 16:9 (720x576) VBR, Auto Letterboxed
    Audio:
    English (Dolby AC3, 2 ch)
    Subtitles:
    English
    Russian
    Polish

    VTS_15 :
    Play Length: 00:00:00
    Video: PAL 16:9 (720x576) VBR, Auto Letterboxed
    Audio:
    English (Dolby AC3, 2 ch)
    Subtitles:
    English
    Russian
    Polish
    English

    VTS_16 :
    Play Length: 00:00:00
    Video: PAL 16:9 (720x576) VBR, Auto Letterboxed
    Audio:
    English (Dolby AC3, 2 ch)
    Subtitles:
    English
    Russian
    Polish
    English
Свернуть
mediainfo
    Формат : MPEG-PS
    Размер файла : 1024 Мбайт
    Продолжительность : 20 м.
    Режим общего битрейта : Переменный
    Общий поток : 6985 Кбит/сек

    Видео
    Идентификатор : 224 (0xE0)
    Формат : MPEG Video
    Версия формата : Version 2
    Профиль формата : Main@Main
    Параметр BVOP формата : Да
    Параметр матрицы формата : Выборочная
    Продолжительность : 20 м.
    Вид битрейта : Переменный
    Битрейт : 6014 Кбит/сек
    Максимальный битрейт : 9800 Кбит/сек
    Ширина : 720 пикселей
    Высота : 576 пикселей
    Соотношение сторон : 16:9
    Частота кадров : 25,000 кадров/сек
    Стандарт вещания : PAL
    Цветовое пространство : YUV
    Субдискретизация насыщенности : 4:2:0
    Битовая глубина : 8 бит
    Тип развёртки : Прогрессивная
    Порядок развёртки : Верхнее поле первое
    Метод сжатия : С потерями
    Бит/(Пиксели*Кадры) : 0.580
    Размер потока : 882 Мбайт (86%)

    Аудио #1
    Идентификатор : 189 (0xBD)-128 (0x80)
    Формат : AC-3
    Формат/Информация : Audio Coding 3
    Расширение режима : CM (complete main)
    Режим смешивания : DVD-Video
    Продолжительность : 20 м.
    Вид битрейта : Постоянный
    Битрейт : 448 Кбит/сек
    Каналы : 6 каналов
    Расположение каналов : Front: L C R, Side: L R, LFE
    Частота : 48,0 КГц
    Битовая глубина : 16 бит
    Метод сжатия : С потерями
    Размер потока : 65,7 Мбайт (6%)

    Аудио #2
    Идентификатор : 189 (0xBD)-129 (0x81)
    Формат : AC-3
    Формат/Информация : Audio Coding 3
    Расширение режима : CM (complete main)
    Режим смешивания : DVD-Video
    Продолжительность : 20 м.
    Вид битрейта : Постоянный
    Битрейт : 384 Кбит/сек
    Каналы : 6 каналов
    Расположение каналов : Front: L C R, Side: L R, LFE
    Частота : 48,0 КГц
    Битовая глубина : 16 бит
    Метод сжатия : С потерями
    Размер потока : 56,3 Мбайт (5%)

    Текст
    Идентификатор : 189 (0xBD)-32 (0x20)
    Формат : RLE
    Формат/Информация : Run-length encoding
    Режим смешивания : DVD-Video

    Меню
Свернуть
Скриншоты

меню
Изображение
Изображение
Изображение
Изображение
Изображение
Свернуть
Изображение
Изображение
Изображение
Изображение
Изображение
Свернуть
Не в сети
Профиль  
 Добавлено: 2012-05-20 08:27 (спустя 10 часов)
Аватара пользователя
Стаж: 7 лет 11 месяцев
Сообщений: 995
Лайков: 74
оуэн в этом дерьме снялся?? да, че как вытянуто все?
Не в сети
Профиль  
 Добавлено: 2012-05-21 00:21 (спустя 15 часов)
Стаж: 6 лет 9 месяцев
Сообщений: 2
Редкостное говно
Не в сети
Профиль  
Начать новую темуОтветить на тему  [ Сообщений: 3 ] 
Вы не можете начинать темы
Вы не можете отвечать на сообщения
Вы не можете редактировать свои сообщения
Вы не можете удалять свои сообщения